This file was generated by Ched 2.7.0.0.
#TITLE ""
#ARTIST ""
#DESIGNER ""
#DIFFICULTY 0
#PLAYLEVEL
#SONGID ""
#WAVE ""
#WAVEOFFSET 0
#JACKET ""
#REQUEST "ticks_per_beat 480"
#00002: 4
#BPM01: 178
#00008: 01
#TIL00: ""
#HISPEED 00
#MEASUREHS 00
#0021a:1414
#00214:00140000
#00312:1414
#00318:00140000
#00418:14
#00414:00140000
#0041a:0014
#00412:00000014
#00518:14
#00514:00140000
#00612:1414
#00618:00140000
#0071a:1414
#00714:00140000
#00814:14
#00818:00140000
#00812:0014
#0081a:00000014
#00914:14
#00918:00140000
#0101a:14141400
#01114:14141400
#01218:14141400
#01312:14141400
#0141a:14
#01414:00140000
#01418:0014
#01412:00000014
#01518:14
#01514:00140000
#0151a:0014
#01612:14
#01618:00140000
#01614:0014
#0161a:00000014
#01714:14
#01718:00140000
#01712:0014
#02218:14
#02214:0014
#0231a:14
#02312:00140000
#02319:0014
#02313:0014
#02414:14
#02418:0014
#02512:14
#0251a:00140000
#02514:00002424
#0261a:14
#02612:00140000
#02618:0014
#02614:00000014
#0271a:14
#02712:00140000
#02718:0014
#02714:00000014
#0281a:14
#02818:0000001400000000
#02914:0000001400000000
#02912:24
#03118:1414
#03112:00140024
#03014:00140014
#0301a:1414
#03010:41
#0371a:14
#03714:00140000
#03812:14
#03818:00140000
#03814:0014
#0381a:00000014
#03914:14
#03918:00140000
#03912:0014
#04112:14
#04118:00140000
#0421a:14
#04214:00140000
#04218:0014
#04212:00000014
#04318:14
#04314:00140000
#0431a:0014
#04412:00140000
#04413:2414
#04414:00000014
#04513:14
#04512:00140000
#0461a:00140000
#04619:2414
#04618:00000014
#04719:14
#0471a:00140000
#0491a:1414
#04914:00140014
#05312:00140000
#05318:0014
#05314:00000014
#05418:00000014
#0541a:14343400
#0541f:11
#0561a:00000014
#05614:00000014
#05612:14343400
#05618:24343400
#06014:00000014
#06118:14
#06112:00140000
#0611a:0014
#06918:14
#06912:00140000
#0691a:0014
#06914:00000014
#06910:41
#07018:14
#07012:00140000
#0701a:0014
#0721a:14140000
#0751a:00140000
#07519:2414
#07518:00000014
#07619:14
#0761a:00140000
#07712:00140000
#07713:2414
#07714:00000014
#07813:14
#07812:00140000
#08012:1414
#08018:00140014
#07314:14
#0731a:00140000
#07312:0014
#07318:00000014
#07414:14
#0741a:00140000
#07412:0014
#0831a:14
#08312:00140000
#08318:0014
#08412:14
#0841a:00140000
#08414:0014
#0851a:14
#08512:00140000
#08518:0014
#08514:00000014
#0861a:14
#08612:00140000
#08712:14
#0871a:00140000
#08714:0014
#0881a:14
#08812:00140000
#08818:0014
#08912:14
#0891a:00140000
#08914:0014
#08918:00000014
#09012:14
#0901a:00140000
#09014:0024
#09018:0000000000240000
#05216:14
#06512:00160016
#06518:2616
#06312:0016
#06318:26
#06412:0016
#06418:26
#06814:14140000
#06618:1616
#06612:00160026
#05012:2424
#0501a:2424
#05010:41
#0511a:24
#05112:24
#05912:25
#0811a:2424
#08112:2424
#08212:24
#0821a:24
#03612:2424
#03618:00240000
#0401a:2424
#04014:00240000
#04010:41
#04812:2424
#04818:00240000
#0671a:24242400
#0671f:21
#07112:24242400
#0791a:24242400
#07910:41
#03517:00000025
#03518:0035350000000000
#06212:26
#00013:00340000
#00014:0034
#00015:00000034
#0551a:34340000
#05718:34340000
#05712:34340000
#01810:41
#02954:0000002400000000
#02952:54
#02858:0000002400000000
#0285a:64
#04452:00240000
#04454:00000024
#04453:5454
#04552:00240000
#04553:54
#0465a:00240000
#04659:6464
#04658:00000024
#04759:64
#0475a:00240000
#0545a:54
#05458:00000024
#0565a:00000024
#05654:00000024
#05652:64
#05658:64
#06652:00000016
#0755a:00240000
#07559:6464
#07558:00000024
#07659:64
#0765a:00240000
#07752:00240000
#07753:5454
#07754:00000024
#07853:54
#07852:00240000
#08252:0014
#0825a:0014
#01752:0014
#0155a:0014
#03952:0014
#0435a:0014
#0705a:0014
#07452:0014
#03557:00000015
#000320:14
#000330:00340000
#000340:0034
#000350:00000034
#001350:34
#001340:00340000
#001330:0034
#001320:00000024
#0053a0:00001424
#009320:00001424
#0183a0:14
#018380:0034
#0193a0:34
#019380:0024
#020320:14
#020340:0034
#021320:34
#021340:0024
#0283a0:14000024
#028380:0000003400000000
#029320:14000024
#029340:0000005400000000
#032390:15250000
#032320:00001525
#033390:1535
#033370:00350025
#034320:1535
#034340:00350025
#035390:15
#035380:0035350000000000
#035370:0000003500352500
#036320:00001424
#0373a0:00001424
#0403a0:00001424
#041320:00001424
#044330:1454
#044320:00540000
#044340:00000054
#045330:5424
#045320:00540000
#046390:1454
#0463a0:00540000
#046380:00000054
#047390:5424
#0473a0:00540000
#048320:00001424
#0513a0:14000034000034003400000024000000
#051321:14000034000034003400000024000000
#0543a1:14343400
#054381:00000034
#0553a1:34342400
#056321:14343400
#056341:00000034
#057321:34342400
#056380:14343400
#0563a0:00000034
#057380:34342400
#058390:1535
#058380:00350025
#059320:1535
#059330:00350025
#060380:1424
#062320:16000026
#0673a0:00001424
#068340:00001424
#071320:00001424
#0723a0:00001424
#075390:1454
#0753a0:00540000
#075380:00000054
#076390:5424
#0763a0:00540000
#077330:1454
#077320:00540000
#077340:00000054
#078330:5424
#078320:00540000
#0793a0:00001424
#082320:14000034000034002400000000000000
#0823a1:14000034000034002400000000000000
#086381:00001424
