This file was generated by Ched 2.7.0.0.
#TITLE ""
#ARTIST ""
#DESIGNER ""
#DIFFICULTY 0
#PLAYLEVEL
#SONGID ""
#WAVE ""
#WAVEOFFSET 0
#JACKET ""
#REQUEST "ticks_per_beat 480"
#00002: 4
#BPM01: 128
#00008: 01
#TIL00: ""
#HISPEED 00
#MEASUREHS 00
#0001a:14
#00114:14
#00218:14
#00312:14
#0041a:14
#00414:0014
#0051a:14
#00612:14
#00618:0014
#00712:14
#0081a:14
#00814:0014
#00810:41
#0091a:14
#01012:14
#01018:0014
#01112:14
#02012:0016
#02018:26
#02010:41
#02118:16
#02112:0016
#02312:1616
#02318:00160016
#02418:0016
#02412:26
#02512:16
#02518:0016
#02718:1616
#02712:00160016
#02818:16
#02810:41
#02914:14
#03018:14
#03112:14
#0321a:14
#03314:14
#03418:14
#03912:14
#04012:14
#04118:14
#04218:14
#04314:14
#04414:14
#0451a:14
#0461a:14
#05513:14
#0551f:11
#05619:14
#05713:14
#05819:14
#06318:0016
#06312:26
#0631f:21
#06412:16
#06418:0016
#06410:41
#06618:1616
#06612:00160016
#06712:0016
#06718:26
#06818:16
#06812:0016
#07012:1616
#07018:00160016
#07112:16
#07218:14
#07314:14
#0741a:14
#07512:14
#07618:14
#07714:14
#0781a:14
#07814:0014
#07810:41
#0791a:14
#08012:14
#08018:0014
#08112:14
#0821a:14
#08214:0014
#0831a:14
#08412:14
#08418:0014
#08512:2626
#08518:00260000
#08618:2626
#08612:00260000
#04710:41
#0123a0:14
#0133a0:24
#014340:14
#015340:24
#016380:14
#017380:24
#018320:14
#019320:24
#022380:1626
#026320:1626
#035320:14
#036320:24
#037380:14
#038380:24
#047320:14
#048320:24
#049380:14
#050380:24
#051340:14
#052340:24
#0533a0:14
#0543a0:24
#059320:15
#060340:25
#061390:15
#062370:25
#065320:1626
#069380:1626
