This file was generated by Ched 2.7.0.0.
#TITLE ""
#ARTIST ""
#DESIGNER ""
#DIFFICULTY 0
#PLAYLEVEL
#SONGID ""
#WAVE ""
#WAVEOFFSET 0
#JACKET ""
#REQUEST "ticks_per_beat 480"
#00002: 4
#BPM01: 128
#00008: 01
#TIL00: ""
#HISPEED 00
#MEASUREHS 00
#00018:0013001300000000
#00015:00130000
#0001b:0013
#00019:00000000000000000000001300000000
#00017:0000000000000013
#00012:0013000000000013
#00016:0013
#00014:00000000000000000000001300000000
#00318:00000000000000002300000000000013
#00314:13130000
#00312:0013001300000000
#00315:0013
#00319:23230000
#0031b:0023002300000000
#00415:1313000000000000
#00418:00130013000000000000000000000000
#00416:00000000000000000013000000000000
#00419:0000000000130000
#00414:00000000000000000000001300000000
#00412:00000000000033330000000000000013
#0041b:0013
#00517:1313000000000000
#00512:00130013000000001400000000000000
#0051b:00000000001300000000000000000000
#00515:0000001300001313
#00518:00000000000000130000000000130000
#00516:0000000000000000000000000000000000000014000000000000000000000000
#0051a:00000000000000000000001400000000
#00618:00130000000000000000000000000000
#00615:0013000000000000
#00617:00130000
#0061b:00000000000013000000001300003333
#00612:00000000130000000033330000000000
#00616:0000001300000000
#0071b:00000013000000001300000000001300
#00717:00000000000013000000001300000000
#00712:13000000000000130000001300000000
#00716:00000013000000000000000000000000
#00715:00000000000000000000000000000013
#01117:00000013000000000000000000001300
#01112:00000013000000001300000000001300
#01116:00000000000013000000001300000000
#0111b:13000000000000130000001300000000
#01216:13000000000000001313000000001300
#01212:00000000130000000000001300000000
#0121b:00000000000000000000000000130000
#01219:00000000000000000000000000000013
#01217:00000000000000000000001300000000
#01214:0013001300000000
#01314:13
#01317:00130000000000000000000000000000
#01316:00000013000000000000000000000000
#01312:00000000001300000000000013000000
#01318:0000001300000000
#01315:00000000000000130000000000000000
#0131b:00000013000000000000000000000000
#0151b:00130000001300000000000013000000
#01512:13000000130000001333333300000000
#01515:0013001300000000
#01518:00000013000000130000000000000000
#01918:00000013000000130000000000000000
#01915:0013001300000000
#01912:00001313
#0191b:1300000000130000
#01917:00000013
#01919:0000000000000013
#01916:0000000000130000
#01914:0000000000000013
#02017:00000013130000000000130000000000
#0201b:23000000000000131300000013000000
#02019:0000000000000013
#02016:13000013
#02012:0000130000130000
#02014:0000000000000013
#02010:41
#02117:13000013
#0211b:0000130000130013
#02116:00000013130000000000130000001300
#02112:23000000000000131300000013000000
#0221b:00000013130000000000000013000000
#02217:23000000000000131300130000001300
#02212:1300000000130013
#02216:00130013
#02417:00000013130000000000130000000000
#02412:0000130000130000
#02415:00000013
#02418:0000000000000013
#0241b:23000000000000131300000000000000
#02612:23000013130000000000130000000000
#02616:00000000000000131300000000000000
#02615:00000013
#02618:0000000000000013
#02617:0000130000130000
#02717:00000013230000000000000000001300
#02712:00000013230000000000000000130000
#0271b:23000000000000132300000000000000
#02716:23000000000000132300000000000000
#02714:00000000000000000000000000000013
#02819:13
#02816:00130000000000001300000000000000
#0281b:0013000013000013
#02812:00000013000000000000130000000000
#02818:00000000001300000000000000000000
#02815:00000000000013000000000000000013
#02817:0000000000130000
#02810:41
#02912:00130000000000001300000000001300
#0291b:00000013000000000000130000000000
#02917:0000000013000013
#02918:1300001300000000
#02915:00000000001300000000000000000000
#02916:0000000000130000
#03118:00000000001300000013001300000000
#03115:0000001300130000
#0311b:00000000000000130000000000000000
#03112:0000000013000013
#03116:13
#03117:00000000000000000000000000000013
#03318:00000000000000000000000000130000
#03315:00000000001300000000000000001300
#03316:0000000000130000
#03312:00000013000000001300000000000000
#0331b:0000001300000000
#03317:0013000000000000
#03314:00130000000000000000000000000000
#03319:13
#0341b:1300000023130000
#03412:1300130000000023
#03419:0000001300002300
#03416:0000000013230000
#03414:0000002300001300
#03417:0000230000000013
#0351b:13000000130000000013000000000000
#03515:00130013000000000000000000130000
#03518:0013000000000013
#03512:0000001300001300
#03517:00000000000000130000000000000000
#03516:0000000000130000
#0361b:13000000000013000000001300000000
#03617:00000013000000001300000000000000
#03616:13000000000000000000001300000000
#03612:00000013000000001300000000001300
#03816:13000000000023000000001200000000
#03812:00000013000000001300000000000000
#03818:0000000000121314
#03815:00000000000000000000000000130000
#03814:00000000000000000000000000000014
#0381b:13
#03817:00000013000000002300000000000000
#0391b:00000033000013000000000013000000
#03915:00000000000000130000001300130000
#03918:0000000013130013
#03912:00000000003300000013000000000000
#03916:0013000000000000
#04117:0013000000000000
#04119:00130013
#0411b:0000001300000013
#04112:0013000000130000
#04116:0000001300000000
#04114:0013
#04212:13000000000013000000000000000013
#04214:0013000000000000
#04216:00130000
#04218:00000013
#04215:00000000000000000000000000130000
#0421b:00000000000000000000000000000013
#04217:00000000000023230000000000000000
#04315:00000000000000130000000000000000
#0431b:00000033000000001300000000000000
#04312:00001300003300000013000000000000
#0431a:0000000000130000
#04313:00000000000000000000001300000000
#04319:00000013
#04314:00000000000000000000000000130000
#04318:0000001300000013
#0461b:1300001313001300
#04615:00000000000000000013000000130000
#04618:0000000000130013
#04612:00000000000000000000001300000013
#04619:0013000000000000
#04617:00130000
#04616:00000000000023230000000000000000
#04712:0000131313000013
#04717:00000000001300130013000000000000
#04716:00000000000000000000001300000000
#0471b:13333333000000000000000000130000
#04718:00000000000000000000000000000013
#04710:41
#04815:13
#0481b:00130000001300000013000000000000
#04812:00000013000000000000000000000000
#04816:0000001300130000
#04819:00000000000000130000001300000000
#04814:00001313
#04915:00130000000000000000000000000000
#04918:00001300000000000000000000130000
#04912:00000013000000000000000000001300
#0491b:13000000000000001300130000000013
#04916:00000000000000000013001300000000
#05015:13131326
#05018:00130000001300000013000000000000
#0501b:00000013000000130000001300000000
#05012:0013001300130000
#05512:1324
#0551b:0000130000130000
#05517:0013
#05518:00000013
#05515:0000000000000013
#0551f:11
#0551a:24
#05516:00240000
#05712:1323
#05718:00000013
#05715:0000000000000013
#05716:00130000
#0571b:23130000
#05717:0023
#05812:23230013
#05818:00000000000000000000000000000013
#0581b:13002313
#05817:00130000
#05816:0023
#05915:13000000000000130000000000000000
#0591b:00130000
#05918:00000000000000001300000000000013
#05912:00000013
#06018:00000000000000001300000000000013
#06015:13000000000000130000000000000000
#0601b:00130000
#06012:00000013
#06115:13000000000000330000000000000013
#0611b:00130013
#06118:00000000000000131300000000000033
#06112:00130013
#06212:0000130000130000
#06215:13000000000000330000000013000000
#06218:00000000000000131300000000001300
#0621b:00130000
#06317:00000013230000000000000000000000
#0631b:23000000000000132300130000000000
#06318:00000013
#06315:0000000000000013
#06316:2323
#06312:00230000
#0631f:21
#0661b:00000013230000000000130000000000
#06618:0000000000001313
#06616:0000130000130000
#06615:00000000000000000000000000130013
#06617:23000000000000132300000000000000
#06612:23
#06717:00000013230000000000000000000000
#06716:00000000000000132300000000000000
#06712:2300230000130000
#06715:00000013
#06718:0000000000000013
#0671b:2323
#0771b:13000000000000000000000000000013
#07712:1300240014140024
#0771a:0000140024240014
#07718:0000001400001400
#07714:0000002400002400
#07815:13000000001300000013000000000000
#07818:00130000000013001300000000000000
#07812:00001300000000130000001300000000
#0781b:00000013000000000000130000000013
#07810:41
#07916:1300000013000000000000000000000000000024000000000000000000000000
#0791b:00130013000000000000000000000000
#07912:00000000001300130000002400000000
#07917:0000001300000000
#07918:0000000000001313
#07915:00000000000000000000000000130000
#0791a:0024
#08012:00130000000013000000000000133333
#08017:0013001300000000
#0801b:00000000130000001300000000000013
#08015:0000000000130000
#08018:00000000000000000000001300000000
#08016:00131300
#08117:00001313000000000000000000000000
#08115:00000000000013000000000000130000
#08118:00000000000000130000000000001300
#08112:00000013000000001300000000000013
#08116:00000000000000000000131300000000
#0811b:13000000001300000000001300000000
#00115:0013001300000000
#00118:00130000
#00112:0013
#00114:00000000000000000000001300000000
#00116:0000000000000013
#0011b:0013000000000013
#00117:0013
#00119:00000000000000000000001300000000
#00218:0013001300000000
#00215:00130000
#0021b:0013
#00219:00000000000000000000001300000000
#00217:0000000000000013
#00212:0013000000000013
#00216:0013
#00214:00000000000000000000001300000000
#00818:1313000000000000
#00815:00130013000000000000000000000000
#00817:00000000000000000013000000000000
#00814:0000000000130000
#00819:00000000000000000000001300000000
#0081b:00000000000033330000000000000013
#00812:0013
#00810:41
#00916:1300000013000000000000000000000000000014000000000000000000000000
#0091b:00130013000000000000000000000000
#00912:00000000001300000000001400000000
#00918:0000001300001313
#00915:00000000000000130000000000130000
#0091a:0014
#01015:00130000000000000000000000000000
#01018:0013000000000000
#01016:00130000
#01012:00000000000013000000001300003333
#0101b:00000000130000000033330000000000
#01017:0000001300000000
#0141b:13130000
#0141a:0013001300000000
#01413:0000000000130013
#01412:00000013
#01617:13000000000000001313000000001300
#0161b:00000000130000000000001300000000
#01612:00000000000000000000000000130000
#01614:00000000000000000000000000000013
#01616:00000000000000000000001300000000
#01619:0013001300000000
#01719:13
#01716:00130000000000000000000000000000
#01717:00000013000000000000000000000000
#0171b:00000000001300000000000013000000
#01715:0000001300000000
#01718:00000000000000130000000000000000
#01712:00000013000000000000000000000000
#01812:13130000
#01813:0013001300000000
#0181a:0000000000130013
#0181b:00000013
#02312:00000013130000000000230000000000
#02316:23000000000000131300000000000000
#0231b:13
#02317:00130000
#02315:00000023
#02318:0000000000000023
#02516:00000013130000000000130000000000
#0251b:0000130000130000
#02518:00000013
#02515:0000000000000013
#02512:23000000000000131300000000000000
#0301b:13
#03019:0013000000130000
#03014:0000001300000013
#03217:0000000000130000
#0321b:00000013000000001300000000001300
#03212:0000001300000000
#03218:00000000001300000000000000000000
#03216:00001300000000000000000000000013
#03219:00130000000000000000000000000000
#03214:13
#03712:13000000130000000013000000000000
#03718:00130013000000000000000000130000
#03715:0013000000000013
#0371b:0000001300001300
#03716:00000000000000130000000000000000
#03717:0000000000130000
#04012:00000033000013000000000013000000
#04018:00000000000000130000001300130000
#04015:0000000013130013
#0401b:00000000003300000013000000000000
#04017:0013000000000000
#04418:00000000000000130000000000000000
#04412:00000033000000001300000000000000
#0441b:00001300003300000013000000000000
#04413:0000000000130000
#0441a:00000000000000000000001300000000
#04414:00000013
#04419:00000000000000000000000000130000
#04415:0000001300000013
#04516:0013000000000000
#04514:00130013
#04512:0000001300000013
#0451b:0013000000130000
#04517:0000001300000000
#04519:0013
#0511b:0000131313000013
#05116:00000000001300130013000000000000
#05117:13000000000000000000001300000000
#05112:13333333000000000000000000130000
#05115:00000000000000000000000000000013
#05218:13
#05212:00130000001300000013000000000000
#0521b:00000013000000000000000000000000
#05217:0000001300130000
#05214:00000000000000130000001300000000
#05219:00001313
#05318:00130000000000000000000000000000
#05315:00001300000000000000000000130000
#0531b:00000013000000000000000000001300
#05312:13000000000000001300130000000013
#05317:00000000000000000013001300000000
#05415:00000013000000130000000013000000
#05418:1313001300000013
#0541b:0013
#05412:0000000000130000
#0561b:13
#05612:2400130000130000
#05616:00241300
#05615:00000013
#05618:0000000000000013
#0561a:0024
#06416:00000013230000000000130000000000
#06412:23000000000000132300000000001300
#06417:2300000023000013
#06419:00000013
#0641b:0000230000130000
#06414:00000013
#06410:41
#06816:00000013230000000000000000000000
#06817:00000000000000132300000000000000
#0681b:2300230000130000
#06818:00000013
#06815:0000000000000013
#06812:2323
#06912:23000013230000000000130000000000
#0691b:23000000000000132300000000000000
#06915:00000013
#06918:0000000000000013
#06917:00230000
#06916:0023
#0701b:23000013230000000000000000130000
#07012:23000000000000132300000000000000
#07016:0000230000000013
#07019:00000000000000000000000000000013
#07017:0023
#07114:13
#07117:00130000000000001300000000000000
#07112:0013000013000013
#0711b:00000013000000000000130000000000
#07115:00000000001300000000000000000000
#07118:00000000000013000000000000000013
#07116:0000000000130000
#0721b:00130000000000001300000000001300
#07212:00000013000000000000130000000000
#07216:0000000013000013
#07215:1300001300000000
#07218:00000000001300000000000000000000
#07217:0000000000130000
#07415:00000000001300000013001300000000
#07418:0000001300130000
#07412:13000000000000130000000000000000
#0741b:0000000013000013
#07416:00000000000000000000000000000013
#07615:00000000000000000000000000130000
#07618:00000000001300000000000000001300
#07617:0000000000130000
#0761b:00000013000000001300000000000000
#07612:0000001300000000
#07616:0013000000000000
#07619:00130000000000000000000000000000
#07614:13
#07317:13
#07319:0013000000130000
#07314:0000001300000013
#07516:0000000000130000
#07512:00000013000000001300000000001300
#0751b:0000001300000000
#07515:00000000001300000000000000000000
#07517:00001300000000000000000000000013
#07514:00130000000000000000000000000000
#07519:13
#08218:13000000001300000013000000000000
#08215:00130000000013001300000000000000
#0821b:00001300000000130000001300000000
#08212:00000013000000000000130000000013
#08317:1313000000000000
#08312:00130000000000002400000000000000
#0831b:00000000001300130000000000000000
#08316:0000000000000000000000001300000000000024000000000000000000000000
#08315:00000013000000000000000013001300
#08318:00000000130000000000000000130000
#0831a:00000000000000000000002400000000
#0841b:00130000000000001300000000130000
#08416:0013000000000000
#08412:00000000130000000000001300000000
#08418:0000001300000013
#08417:0000130000130000
#08415:00000000000000130000000000000013
#06516:23000000000000132300000000001300
#06514:00000013
#06512:00000013230000000000130000000000
#0651b:2300000000000013
#06519:00000013
#06517:0000130000130000
#08518:2300230023000023
#0851b:0023002300000000
#08515:00000023
#08512:23
#08615:23232300
#08612:0023002300000000
#0861b:23
#0005b:0013
#00054:00000000000000000000001300000000
#00057:0000000000000013
#00152:0013
#00156:0000000000000013
#00159:00000000000000000000001300000000
#0025b:0013
#00257:0000000000000013
#00254:00000000000000000000001300000000
#00355:0063
#00358:0053
#00752:13
#0075b:0013
#0115b:13
#01152:0013
#01352:00000013
#01552:0053
#01556:00000013
#0155b:00000013
#0175b:00000013
#01952:0013
#01958:00000053000000000000000000000000
#0205b:13
#02056:53
#02052:00530000
#02157:63
#0215b:00630000
#02152:13
#02252:53
#02256:00530000
#02257:13
#0235b:63
#02357:00630000
#02356:13
#0245b:13
#02452:00530000
#0255b:00630000
#02552:13
#02657:00530000
#02652:13
#02852:00000013000000000000000000000000
#02855:0000001300000000
#0295b:00000013000000000000000000000000
#02958:0000001300000000
#0315b:13
#03156:13
#0325b:00000013000000000000000000000000
#03252:0000001300000000
#0335b:0000001300000000
#03352:00000013000000000000000000000000
#03656:53
#03652:00000053000000000000000000000000
#03657:0063
#0365b:00000000000000000000006300000000
#0385b:53
#03857:00000053000000000000000000000000
#03854:00000000000000000000000000000014
#03958:0000000000000013
#04055:0000000000000013
#04156:0000001300000000
#0415b:0000005300000000
#04152:0000000000530000
#04157:0000000000130000
#04358:0000000000000013
#04455:0000000000000013
#04552:0000006300000000
#04557:0000001300000000
#0455b:0000000000630000
#04556:0000000000130000
#0475b:53
#04756:00000000000000000000005300000000
#04757:00000000000000000053000000000000
#0485b:00530000000000000000000000000000
#04852:00000053000000000000000000000000
#04854:00000013
#04956:00000000000000000000005300000000
#05156:00000000000000000063000000000000
#05157:00000000000000000000006300000000
#05152:63
#05252:00630000000000000000000000000000
#0525b:00000063000000000000000000000000
#05259:00000013
#05357:00000000000000000000006300000000
#05455:00000063000000000000000000000000
#0545b:0013
#05556:00140000
#05552:0014
#05656:00140000
#0565a:0014
#0575b:13
#05757:0013
#05752:5313
#05756:00530000
#0585b:6313
#05857:00630000
#05852:13130000
#05856:0013
#05955:53
#05958:0063
#06055:53
#06058:0063
#06155:53
#06152:00530000
#06158:0063
#0615b:00000063
#06255:53
#06252:00530000
#0635b:13
#06356:53
#06352:00230000
#06452:13
#06457:63
#0645b:00230000
#0675b:1313
#06752:00130000
#06852:1313
#0685b:00130000
#0695b:13
#06957:00130000
#06956:0013
#07052:13
#07056:00130000
#07057:0013
#0715b:00000013000000000000000000000000
#07158:0000001300000000
#07255:0000001300000000
#07252:00000013000000000000000000000000
#07452:13
#07457:13
#0755b:0000001300000000
#07552:00000013000000000000000000000000
#07652:0000001300000000
#0765b:00000013000000000000000000000000
#0785b:00000013000000000000000000000000
#07852:00000000000000000000001300000000
#0795b:00000053000000000000000000000000
#07958:0000000000000013
#08252:00000013000000000000000000000000
#0825b:00000000000000000000001300000000
#08355:0000000000000013
#08558:0013
#08552:0013
#08655:0013
#0865b:0013
#00454:00000000000000000000001300000000
#00859:00000000000000000000001300000000
#05055:00000016
#08052:00000000000000000000000000530000
#06652:53
#06656:00530000
#06657:13
#06557:00630000
#0655b:63
#06556:13
#003380:0013
#0033b0:00000023
#003351:0013
#003321:00000023
#004321:00000000001333330000000000000000
#004361:0023
#006321:00000000000000001333330000000000
#006361:00000000000000000000002300000000
#0063b1:00000000000000000000000000133333
#007371:23
#0083b1:00000000001333330000000000000000
#008371:0023
#0103b1:00000000000000001333330000000000
#010371:00000000000000000000002300000000
#010321:00000000000000000000000000133333
#011361:23
#0123b1:13330000333300002300000000000000
#012381:00003333000033330000000000000000
#0133b1:0000000013332300
#013391:00000000000000000033003300000000
#014321:13000033330000332300000000000000
#014351:00333300003333000000000000000000
#0143b0:00000000000000001300003333000033
#014380:00000000000000000033330000333300
#0153b0:23
#015320:00000000000000001333333300000000
#015360:00000023
#016320:13330000333300002300000000000000
#016350:00003333000033330000000000000000
#017320:0000000013332300
#017340:00000000000000000033003300000000
#0183b0:13000033330000332300000000000000
#018380:00333300003333000000000000000000
#018321:00000000000000001300003333000033
#018351:00000000000000000033330000333300
#019321:23
#019381:00000013000000000000000000000000
#0193b1:0000002300000000
#020361:13000000000000332300000000000000
#020321:00000033330000000000000000000000
#021371:13000000000000332300000000000000
#0213b1:00000033330000000000000000000000
#022321:13000000000000332300000000000000
#022361:00000033330000000000000000000000
#0233b1:13000000000000332300000000000000
#023371:00000033330000000000000000000000
#024321:13000033330000000000000000000000
#024361:00000000000000332300000000000000
#0253b1:13000033330000000000000000000000
#025371:00000000000000332300000000000000
#026371:13000033330000000000000000000000
#0263b1:00000000000000332300000000000000
#030361:13
#030341:0033000000000000
#030321:00230000
#030370:00130000
#030390:0000003300000000
#0303b0:0023
#030361:0013
#030341:0000000000330000
#030321:00000023
#030370:00000013
#030390:0000000000000033
#0313b0:23
#032360:0013
#032320:0000000000230000
#033370:0013
#0333b0:0000000000230000
#036360:1300002300000000
#036320:00000033000000000000000000000000
#036370:0000000013000023
#0363b0:00000000000000000000003300000000
#0383b0:1300002300000000
#038370:00000033000000000000000000000000
#0393b0:00001333000000000000000000000000
#039370:00230000
#039321:00000000133300000000000000000000
#039361:0000002300000000
#040321:00001333000000000000000000000000
#040361:00230000
#0403b0:00000000133300000000000000000000
#040370:0000002300000000
#0413b0:0000001300000000
#041370:0000000000230000
#041321:0000000000130000
#041361:0000000000000023
#042371:13
#042391:0033000000000000
#0423b1:00230000
#043371:0013000000000000
#0433b1:00000033230000000000000000000000
#043360:00130000
#043320:00000000003323000000000000000000
#044360:0013000000000000
#044320:00000033230000000000000000000000
#044371:00130000
#0443b1:00000000003323000000000000000000
#045321:0000001300000000
#045361:0000000000230000
#0453b0:0000000000130000
#045370:0000000000000023
#046360:13
#046340:0033000000000000
#046320:00230000
#0473b0:13333333000000000000000000000000
#047370:00230000
#047370:00000000000000000013000000000000
#0473b0:00000000000000000000002300000000
#047361:00000000000000000000001300000000
#047321:00000000000000000000000000230000
#0483b1:00130000000000000000000000000000
#048371:00000023000000000000000000000000
#048320:00000013000000000000000000000000
#048360:00000000002300000000000000000000
#0493b0:00130000
#049390:00000000003300000000000000000000
#049370:0000002300000000
#049321:0000001300000000
#049341:00000000000000330000000000000000
#049361:0023
#049361:00000000000000000000001300000000
#049321:00000000000000000000000000230000
#051321:13333333000000000000000000000000
#051361:00230000
#051361:00000000000000000013000000000000
#051321:00000000000000000000002300000000
#051370:00000000000000000000001300000000
#0513b0:00000000000000000000000000230000
#052320:00130000000000000000000000000000
#052360:00000023000000000000000000000000
#0523b1:00000013000000000000000000000000
#052371:00000000002300000000000000000000
#053321:00130000
#053341:00000000003300000000000000000000
#053361:0000002300000000
#0533b0:0000001300000000
#053390:00000000000000330000000000000000
#053370:0023
#053370:00000000000000000000001300000000
#0533b0:00000000000000000000000000230000
#054350:00000013000000000000000000000000
#054320:0000002300000000
#057320:13000000000000332300000000000000
#057360:00000033330000000000000000000000
#0583b0:13000000000000332300000000000000
#058370:00000033330000000000000000000000
#059350:13
#059320:00230000
#059380:0013
#0593b0:00000023
#060350:13
#060320:00230000
#060380:0013
#0603b0:00000023
#061350:13000000000000332300000000000000
#061320:00330000
#061381:00000000000000001300000000000033
#0613b1:00000033
#062381:23
#062350:13000000000000332300000000000000
#062320:00330000
#063360:13
#063320:00000023000000000000000000000000
#063320:00130000
#063360:00000000000000230000000000000000
#064370:13
#0643b0:00000023000000000000000000000000
#0643b0:00130000
#064370:00000000000000230000000000000000
#0653b0:13000000000000332300000000000000
#065370:00000033330000000000000000000000
#066320:13000000000000332300000000000000
#066360:00000033330000000000000000000000
#073320:13
#073340:0033000000000000
#073360:00230000
#0733b1:00130000
#073391:0000003300000000
#073371:0023
#073320:0013
#073340:0000000000330000
#073360:00000023
#0733b1:00000013
#073391:0000000000000033
#074371:23
#075371:0013
#0753b1:0000000000230000
#076361:0013
#076321:0000000000230000
#0793b1:00000013000000000000000000000000
#079371:00000000002300000000000000000000
#080321:00000000000000000000000000133333
#081361:23
#085321:13332300
#085351:0033003300000000
#0863b1:13332300
#086381:0033003300000000
