This file was generated by Ched 2.7.0.0.
#TITLE ""
#ARTIST ""
#DESIGNER ""
#DIFFICULTY 0
#PLAYLEVEL
#SONGID ""
#WAVE ""
#WAVEOFFSET 0
#JACKET ""
#REQUEST "ticks_per_beat 480"
#00002: 4
#BPM01: 128
#00008: 01
#TIL00: ""
#HISPEED 00
#MEASUREHS 00
#00015:00130000
#00018:0000001300000000
#00019:00000000000000000000001300000000
#00017:0000000000000013
#00012:0013000000000013
#00016:0013
#00014:00000000000000000000001300000000
#0001b:0013
#00518:00000000001300130000000000000000
#00515:0000001300000000
#00512:3300330033000000000000000000000000000034000034000000000000000000
#00618:00130000000000000000000000000000
#00615:0013000000000000
#00612:0000001300000000
#0061b:00130000
#00715:00000013000000000000000000001300
#00718:00000000000013000000001300000000
#00712:0013
#0071b:00000000000000000000000000000013
#01915:00000013
#01918:0000000000000013
#01912:0000000000130000
#02118:0000130000000013
#02112:2300000000130000
#02115:00000013000000000000000013000000
#02418:00000013000000000000000013000000
#02412:0000000000130000
#02415:0000130000000013
#0241b:2300000000130000
#02714:00000014000000002400000000000000
#02718:23000000240000140000000000003333
#0271b:00000000000000000000000000130000
#02712:23
#02815:00000000001300000000000000000033
#02818:33333300000013000000000000000000
#02812:0000000013000013
#0281b:0000000000130000
#02810:41
#03512:0000001300000000
#03518:00000000000000130000000000000000
#03515:00000000000000000013000000330000
#0351b:13333333000000000000130000000000
#03918:0000000000000013
#03912:0000000000000013
#0391a:00000034000000340000003400000000
#03917:00000000003400000034000000000000
#04118:0013001300000000
#04115:0000130000130000
#0411b:0000000000000013
#04112:0013000000000000
#04218:0000002300001300
#04215:00003300000000230000000000130000
#0421b:00000000000000000000000000000013
#04312:00000000003400000034000000001300
#04318:0000000000000013
#04315:00000034000000340000003400000000
#05815:00000000000000000000000000000013
#0581b:00000013
#05814:24
#05812:0024
#05813:00240000
#0581a:24
#05818:0024
#05819:00240000
#0621b:0000000000130000
#06215:13000013
#06218:0000000000000013
#0671b:00000013000000000000130000000000
#06718:00000000000000130000000000001300
#06715:00230013
#06712:2323
#07918:00000000001300130000000000000000
#07915:33333300000013000000000000000000
#07916:0000000000000000000000000000000000000034000034000000000000000000
#0801b:00130000000000000000000000000000
#08015:00001300000013000000000000130000
#08018:00000000130000001300001300000000
#08012:00000000000000000000130000003333
#0811b:00000013000000000000000000000000
#08118:00000000000013001300001300000013
#08115:00000013000000130000000000001300
#08112:00000000000000000000001300000000
#0291b:0013
#02915:33333300000013000000000000000000
#02918:00000000001300000000000000001300
#02912:0000000000130000
#03115:1300000000000013
#0311b:00000000001333330033330000000000
#03118:0013
#03112:00000000000000000000000000000033
#03615:13000000000000000000001300000000
#03612:00000013000000001300000000000000
#03618:00000013000000001300000000000000
#0361b:13000000000000000000001300000000
#05716:00140000
#05712:24
#0571a:0024
#06312:23000000000000330000130000000000
#06315:00230013
#06318:00000013000000000000000000001300
#0631f:21
#08415:00130000000000001300001300001300
#08418:00001300000013000000130000000013
#08412:00130000
#0841b:00000000000000000000000000130000
#00118:00130000
#00115:0000001300000000
#00114:00000000000000000000001300000000
#00116:0000000000000013
#0011b:0013000000000013
#00117:0013
#00119:00000000000000000000001300000000
#00112:0013
#00215:00130000
#00218:0000001300000000
#00219:00000000000000000000001300000000
#00217:0000000000000013
#00212:0013000000000013
#00216:0013
#00214:00000000000000000000001300000000
#0021b:0013
#0041b:00000000001333333333330000000000
#00415:33333300000000000000000000000013
#00312:00000000000000000000000000000013
#00318:24242400
#00314:0024002400000000
#00812:00000000001333333333330000000000
#00818:33333300000000000000000000000013
#00810:41
#00915:00000000001300130000000000000000
#00918:0000001300000000
#0091b:33333300000000000000000000000000
#0091a:0000000000000000000000000000000000000034000034000000000000000000
#01015:00130000000000000000000000000000
#01018:0013000000000000
#0101b:0000001300000000
#01012:00130000
#01118:00000013000000000000000000001300
#01115:00000000000013000000001300000000
#0111b:0013
#01212:13000013
#01215:0013000000130013
#01218:00131300
#0121b:0000001300000000
#01318:13130000
#0131b:0013000000000000
#01315:0000001300000000
#01312:00000000000000001333333300000000
#01715:13000000000000001333333300000000
#01718:0013000000000000
#01712:00130000
#0171b:0000001300000000
#01612:1313
#01615:0013000000130000
#0161b:00130013
#01618:0000001300000013
#0141b:13000013
#01418:0013000000130013
#01415:00131300
#01412:0000001300000000
#01515:13130000
#01512:0013000000000000
#01518:0000001300000000
#0151b:00000000000000001333333300000000
#0181b:1313
#01818:0013000000130000
#01812:00130013
#01815:0000001300000013
#02018:00000013000000000000000013000000
#02015:0000130000000013
#0201b:2300000000130000
#02010:41
#02218:00000013000000000000000013000000
#02215:0000130000000013
#0221b:2300000000130000
#02315:00000013000000000000000023000000
#02318:0000130000000023
#02312:2300000000230000
#02515:00000013000000000000000013000000
#0251b:0000000000130000
#02518:0000130000000013
#02512:2300000000130000
#02618:00000013000000000000000013000000
#02612:0000000000130000
#02615:0000130000000013
#0261b:2300000000130000
#03012:13
#0301b:0013
#03018:0000000000333300
#03015:0033330000000000
#03218:00000000001300000000000000001300
#03215:0000001300000000
#0321b:00000000000000001300000000000033
#03212:33333300000000000000130000000000
#03315:00000000001300000000000000130000
#03318:0000001300000000
#03312:0013
#0331b:33333300000000000000130000000000
#0371b:0000001300000000
#03715:00000000000000130000000000000000
#03718:00000000000000000013000000330000
#03712:13333333000000000000130000000000
#03818:13
#0381b:00000013000000002300000000000000
#03812:13
#03815:00000013000000002300000000000000
#03814:00000000000000000000003232323200
#04015:00000000003400000034000000001300
#0401b:0000000000000013
#04012:00000034000000340000003400000000
#0441b:0000000000000013
#04415:0000000000000013
#04417:00000034000000340000003400000000
#0441a:00000000003400000034000000000000
#04515:0013001300000000
#04518:0000130000130000
#04512:0000000000000013
#0451b:0013000000000000
#04712:1313
#04715:0013000000130000
#0471b:00130013
#04718:0000001300000013
#04710:41
#04812:13
#04815:00001300000000001333333300000000
#0481b:00130000
#04818:0000001300000000
#0491b:1313
#04918:0013000000130000
#04912:00130013
#04915:0000001300000013
#0501b:13000023
#05018:00001300000000001333333300000000
#05012:00130000
#05015:0000001300000000
#05112:1300000013000013
#05115:0013000000001300
#05118:0000130000130000
#0511b:1300001313000000
#05212:13000000000000001333333300000000
#05215:0013000000000000
#05218:00130000
#0521b:1300001300000000
#0531b:1300000013000013
#05318:0013000000001300
#05315:0000130000130000
#05312:1300001313000000
#05418:0000000000130013
#05415:00000013
#05918:13
#0591b:0013
#06018:13000000000000000000000000000013
#06012:00000013
#06115:13
#06112:0013
#0641b:23000000000000330000130000000000
#06418:00230013
#06415:00000013000000000000000000001300
#06410:41
#06512:23000000000000330000130000000000
#06515:00230013
#06518:00000013000000000000000000001300
#0661b:23000000000000330000130000000000
#06618:00230013
#06615:00000013000000000000000000001300
#06812:00000013000000000000130000000000
#06815:00000000000000130000000000001300
#06818:00230013
#0681b:2323
#0691b:00000013000000000000130000000000
#06918:00000000000000130000000000001300
#06915:00230013
#06912:2323
#07012:00000013000000000000000000130000
#07015:00000000000000130000000000003333
#0701b:2323
#07018:00230000
#07118:00000000001300000000000000000033
#07115:33333300000013000000000000000000
#0711b:0000000013000013
#07112:0000000000130000
#07212:0013
#07218:33333300000013000000000000000000
#07215:00000000001300000000000000001300
#0721b:0000000000130000
#07418:1300000000000013
#07412:00000000001333330033330000000000
#07415:0013
#0741b:00000000000000000000000000000033
#0731b:13
#07312:0013
#07315:0000000000333300
#07318:0033330000000000
#07515:00000000001300000000000000001300
#07518:0000001300000000
#07512:00000000000000001300000000000033
#0751b:33333300000000000000130000000000
#07618:00000000001300000000000000130000
#07615:0000001300000000
#0761b:0013
#07612:33333300000000000000130000000000
#07715:00000000000000000000000000000013
#0771a:0000240000000024
#07716:0000002400002400
#07712:0000000024240000
#07818:00000000001300000000000000000000
#07812:33333300000000000000000000000013
#0781b:00000000000033333333330000000000
#07810:41
#08315:0000001300000000
#08318:33333333000000000000000000000000
#08316:0000000000000000000000000000000000000034000034000000000000000000
#08215:00000000001300000000000000000000
#0821b:33333300000000000000000000000013
#08212:00000000000033333333330000000000
#0551f:11
#05512:24
#05516:00240000
#0551a:0024
#08512:24242400
#08518:0024002400002300
#08515:0000000000000023
#03412:0000240000000024
#03416:0000002400002400
#0341a:0000000024240000
#04615:0000002300000000
#04618:00003300000000230000000000000000
#0561a:24
#05616:00240000
#05612:0024
#0861a:24242400
#08614:0024002400000000
#00752:0013
#0075b:13000000000000000000000000000063
#0205b:13
#02055:00630000
#0245b:13
#02455:00530000
#02858:00000013000013000000000000000000
#02852:0000000000000053
#02955:00000013000013000000000000000000
#03155:1300000000000053
#0315b:00000000005300000000000000000000
#03158:0023
#03655:53000000000000000000006300000000
#03652:00000053000000006300000000000000
#03658:00000053000000006300000000000000
#0365b:53000000000000000000006300000000
#03958:0000000000000013
#03952:0000000000000013
#04158:0000001300000000
#04155:0000000000130000
#04352:0000000000000013
#04358:0000000000000013
#05556:00140000
#0555a:0014
#05752:14
#0575a:0014
#05854:14
#05852:0014
#05853:00140000
#0585a:14
#05858:0014
#05859:00140000
#06352:13
#06355:00530000
#06755:00130000
#06752:1313
#08552:0014
#00352:00000000000000000000000000000053
#0045b:00000000005300000000000000000000
#00458:00000000000000000000001300000000
#00455:00000000000000000000000000000053
#00852:00000000006300000000000000000000
#00855:00000000000000000000001300000000
#00858:00000000000000000000000000000063
#0115b:0013
#01152:13
#01355:00000013
#01352:0053
#01755:0063
#01752:00000013
#0155b:0063
#01558:00000013
#01959:0014
#02158:00530000
#02152:13
#02255:00630000
#0225b:13
#02358:00530000
#02352:13
#02558:00630000
#02552:13
#02655:00530000
#0265b:13
#0275b:00000000000000000000000000530000
#03052:53
#0305b:0053
#03252:00000013000000000000000000000000
#03255:0000001300000000
#03258:0000000000000063
#03358:0000001300000000
#0335b:00000013000000000000000000000000
#0355b:53
#03752:63
#03858:63
#0385b:00000063000000000000000000000000
#03852:63000000000000000000000000000016
#03855:00000063000000000000000000000000
#04055:0000000000000013
#0405b:0000000000000013
#0445b:0000000000000013
#04455:0000000000000013
#04555:0000001300000000
#04558:0000000000130000
#04852:00000013
#04855:0053
#0505b:00000013
#05058:0053
#05453:0014
#05656:00140000
#05652:0014
#05958:53
#0595b:0053
#06058:53
#06155:63
#06152:0063
#06255:63
#0645b:13
#06458:00630000
#06552:13
#06555:00530000
#0665b:13
#06658:00630000
#0685b:1313
#06858:00130000
#06952:1313
#06955:00130000
#0705b:1313
#07058:00130000
#07052:00000000000000000000000000630000
#07155:00000013000013000000000000000000
#0715b:0000000000000063
#07258:00000013000013000000000000000000
#07458:1300000000000063
#07452:00000000006300000000000000000000
#07455:0023
#0735b:63
#07352:0063
#07558:0000001300000000
#07555:0000000000000053
#0755b:00000013000000000000000000000000
#07655:0000001300000000
#07652:00000013000000000000000000000000
#07852:00000013000000000000000000000053
#07858:00000000005300000000000000000000
#0785b:00000000000000000000001300000000
#07755:00000000000000000000000000000053
#07956:0000000000000014
#08055:00000000000000000000000000530000
#08158:00000000000000000000000000000063
#08255:00000000006300000000000000000000
#0825b:00000013000000000000000000000063
#08252:00000000000000000000001300000000
#08356:0000000000000014
#0865a:0014
#05252:0063
#05255:00000013
#003380:00001424
#003320:00000000000000000000000000000013
#004350:33333323000000000000000000000000
#0043b0:00000000001333333333330000000000
#004380:00000000000000000000002300000000
#004350:00000000000000000000000000000013
#005320:33333323000000000000000000000000
#005320:0000000000000000000000000000000014000034000034000000000000000000
#005360:00000000000000000000000034342400
#0063b0:0013
#0063a0:00000000000000000033000000000033
#006390:0000000000330033
#006380:00000000000000000000003300330000
#0073b0:23
#0073b0:00000000000000000000000000000013
#008380:33333323000000000000000000000000
#008320:00000000001333333333330000000000
#008350:00000000000000000000002300000000
#008380:00000000000000000000000000000013
#0093b0:33333323000000000000000000000000
#0093a0:0000000000000000000000000000000014000034000034000000000000000000
#009360:00000000000000000000000034342400
#010320:0013
#010330:00000000000000000033000000000033
#010340:0000000000330033
#010350:00000000000000000000003300330000
#011320:23
#013320:00000000000000001333333300000000
#013350:00000023
#0153b0:00000000000000001333333300000000
#015380:00000023
#017350:00000000000000001333333300000000
#017320:00000023
#019390:14000034000034342400000000000000
#020350:00130000
#020320:00000000000000332300000000000000
#021380:00130000
#0213b0:00000000000000332300000000000000
#022350:00130000
#022320:00000000000000332300000000000000
#023380:00130000
#0233b0:00000000000000332300000000000000
#024350:00130000
#024320:00000000000000332300000000000000
#025380:00130000
#0253b0:00000000000000332300000000000000
#026350:00130000
#026320:00000000000000332300000000000000
#0273b0:00000000000000000000000000130000
#027380:00000000000000000000000000003333
#028380:33333323000000000000000000000000
#028320:0000000000000013
#028350:00000000000000000000000000000033
#029350:33333323000000000000000000000000
#030320:13
#030350:0033332300000000
#0303b0:0013
#030380:0000000000333323
#0313b0:00000000001333330033332300000000
#031380:0033
#031350:0000000000000013
#031320:00000000000000000000000000000033
#032320:33333323000000000000000000000000
#032380:0000000000000013
#0323b0:00000000000000000000000000000033
#0333b0:33333323000000000000000000000000
#033380:0000000000000013
#034380:23
#0353b0:13333333000000000000000000000000
#035380:00230000
#035320:00000013
#035350:00000000000000000000000000332300
#036350:1300002300000000
#036320:00000033000000000000000000000000
#0363b1:1300002300000000
#036381:00000033000000000000000000000000
#036381:0000000013000023
#0363b1:00000000000000000000003300000000
#036320:0000000013000023
#036350:00000000000000000000003300000000
#037320:13333333000000000000000000000000
#037350:00230000
#0373b0:00000013
#037380:00000000000000000000000000332300
#038380:1300002300000000
#0383b0:00000033000000000000000000000000
#038321:1300002300000000
#038351:00000033000000000000000000000000
#038341:00000000000000000000123232323200
#038321:00000000000000000000000000000026
#0393a1:00001434000034340000343400000000
#039371:00000000343400003434000024000000
#040321:00001434000034340000343400000000
#040351:00000000343400003434000024000000
#042321:13
#042351:0033230000000000
#043351:00001434000034340000343400000000
#043321:00000000343400003434000024000000
#044371:00001434000034340000343400000000
#0443a1:00000000343400003434000024000000
#0463b1:13
#046381:0033230000000000
#048351:00000000000000001333333300000000
#048321:00000023
#050381:00000000000000001333333300000000
#0503b1:00000023
#052321:00000000000000001333333300000000
#052351:00000023
#054331:14000034000034342400000000000000
#059381:13
#0593b1:0033
#060381:33
#0603b1:0023
#061351:13
#061321:0033
#062351:33
#062321:0023
#063351:00130000
#063321:00000000000000332300000000000000
#064381:00130000
#0643b1:00000000000000332300000000000000
#065351:00130000
#065321:00000000000000332300000000000000
#066381:00130000
#0663b1:00000000000000332300000000000000
#070321:00000000000000000000000000130000
#070351:00000000000000000000000000003333
#071351:33333323000000000000000000000000
#0713b1:0000000000000013
#071381:00000000000000000000000000000033
#072381:33333323000000000000000000000000
#0733b1:13
#073381:0033332300000000
#073321:0013
#073351:0000000000333323
#074321:00000000001333330033332300000000
#074351:0033
#074381:0000000000000013
#0743b1:00000000000000000000000000000033
#0753b1:33333323000000000000000000000000
#075351:0000000000000013
#075321:00000000000000000000000000000033
#076321:33333323000000000000000000000000
#076351:0000000000000013
#077351:23
#077351:00000000000000000000000000000013
#078321:33333323000000000000000000000000
#078381:00000000001300000000000000000000
#0783b1:00000000000033333333332300000000
#078321:00000000000000000000000000000013
#079351:33333323000000000000000000000000
#079321:0014
#079361:0000000000000000000000000000000000000034000034003400340024000000
#080351:00000000000000000000000000130000
#080321:00000000000000000000000000003333
#081321:23
#081381:00000000000000000000000000000013
#0823b1:33333323000000000000000000000000
#082351:00000000001300000000000000000000
#082321:00000000000033333333332300000000
#0823b1:00000000000000000000000000000013
#083381:33333333230000000000000000000000
#0833a1:0014
#083361:0000000000000000000000000000000000000034000034003400340024000000
