This file was generated by Ched 2.7.0.0.
#TITLE ""
#ARTIST ""
#DESIGNER ""
#DIFFICULTY 0
#PLAYLEVEL
#SONGID ""
#WAVE ""
#WAVEOFFSET 0
#JACKET ""
#REQUEST "ticks_per_beat 480"
#00002: 4
#BPM01: 128
#00008: 01
#TIL00: ""
#HISPEED 00
#MEASUREHS 00
#00017:00000013000000000000000000000000
#00014:00000000130000000000131300000000
#00016:1300001300000014
#00012:0013000014000000
#00018:00000000000000000000001400000000
#0001b:13000000000000131300000000131300
#00019:00000000001300000000000000000000
#00312:00001300000013000000001300000013
#00315:13131300
#0031b:0023002300130000
#00318:2300230023001212
#00316:00000000000000000000000000120000
#00415:13001300000000130000000000000000
#00418:00130000000013001300001600000000
#00412:00000013000000000000160000000013
#0041b:00000000001300000013000000000000
#00515:13000000000000130000000000000000
#00518:00130000000013000000000000000000
#0051b:00001300001300000000000000000000
#00512:0000001c000000001400000000000000
#00514:0000000000000000000000000000000000000014000000000000000000000000
#00516:00000000000000000000001400000000
#0051a:0000000000001414
#00618:00120000000000000000000000000000
#00616:00001200140014000014000000001400
#0061b:00130000
#00612:00000000000013000000140000140000
#0061a:00000000000000001400001400000014
#0071a:00001400000014001400000000140000
#00716:00000014000000140000001400000000
#00712:14000000001400000000140000001400
#0071b:00000000000000000000000000000013
#01218:00130000001300000016000000000000
#01212:00000000000000001600001300140000
#01216:0000000000000014
#0121a:00000000000000000000000000000014
#0121b:00000013000000130000001300000000
#01312:16000013001300000000000000000000
#01318:00160000000000130000000000000000
#01315:0000001300000000
#0131b:00000013000000000000000013000000
#01316:0000000000000014
#01918:0000000000130000000000001300000000000000000000001400000000000000
#01912:13000000000000131c00130000000000
#01915:00001313001300000000000000000000
#0191b:00130000
#01916:0000000000140013
#0191a:0000000000000014
#01914:00000013
#02416:00000014180014000000000000001400
#02412:2c000000000000141800140000000000
#02414:00000014
#02417:0000000000130000
#0241a:0014000000000000
#02419:00000013
#0241b:0000000000000013
#02716:2314241424140014
#02712:00000013000000000000001400140014
#0271b:00000000000000130000000000000000
#0271a:24000000000000000014000014000000
#02818:14000000000000000000000000000013
#02812:00140014000000001400000000000000
#0281a:0014000000000000
#0281b:00000000001313000000000000001300
#02816:0000001400140000
#02817:0013
#02810:41
#02916:00000013000014001300140000001300
#0291a:00000014000000001400000000000000
#02912:00130000001313000000000000000000
#02915:13
#0291b:0000000000000013
#03118:00000000001300000000130000000000
#03115:00000000000013000013000000000013
#03112:00000000140000130000000014001300
#0311a:14000000000000001400000000140000
#0311b:00000000000000000000001300000000
#03116:0014000000000000
#0351a:14000000000000140000000000001400
#03515:00120000000000000000000000000000
#03517:00001200000000000013130000000000
#03519:00000012000000000000000000000000
#03512:0000140000141400
#03516:00000000000013130000000000140014
#03612:14000000000013000000001300000000
#0361b:00000013000000000000000000001300
#03616:00000000001400140000000000140014
#0361a:0014
#03812:00000000000000140000120014001600
#03817:00000000000024000000001300150017
#0381a:14
#03815:00140000000000000000000000000000
#03819:0014000000000000
#03814:00000014000000000000000000000000
#03818:00140000
#03813:00000000001400000000000000000000
#03816:0024
#0391b:00000000001300130000000000000000
#03912:0013130014000018
#03916:00000014000014000014140014140000
#0391a:00000000000000000000001400000000
#0421a:1400002400000000
#04216:00001400140000240000000000000000
#04212:14000014000014001300000013000013
#04215:00000000000000000013000000130000
#0421b:00000000000000000000001300000013
#04218:0000000000130013
#0431a:00000000000000140000000000000000
#04312:0014000016000000
#04317:00000000000000000013000000000000
#04314:0000140000160000
#04319:00000000000000000000001300000000
#04316:00000014000014000000000016000000
#0431b:00000000000000000000000000130000
#04318:00000000001400000000000000001600
#04612:14000000000024000013000014000000
#04615:00000000000000000000130000000013
#04618:00000000000000000000001300001300
#0461b:00000000000000000000000000130000
#04616:00001400140000240000000000000000
#0461a:14141400
#04918:00130000000000000000000000000000
#04915:0013000000000000
#04912:00000013000014000000000000001400
#0491a:00000000140000001400140000000014
#04916:00000000001400140014001400140000
#0491b:13
#05012:1400001300000000000000002c000000
#05016:00140000000000000000000000000000
#05018:00000000001300001300130000000000
#0501b:00000000000013000013000000000000
#05015:00000000130000130000001300000000
#0501a:0014000000000000
#05512:14000000000000002600000000000012
#0551a:0000000000120000
#05518:26000000000000131300000012000000
#05516:00000000000000000000001200001200
#0551b:00000013130000000000000000000000
#05514:00000000000000000000000000120000
#0551f:11
#05515:00260000
#0571b:00000013
#05712:2c000000130000132c00000000001300
#05718:00000013130000000000000000000000
#05716:00000013
#05717:0000000000000013
#05812:2c0000002c0000162c00000013000000
#05817:00000000000000000000000000000013
#0581b:00000013
#05818:00000016000000000000000000000000
#06212:0000130000120000
#06214:00000012
#06216:13000000000000131300130000001200
#0621b:13
#06219:0013001300000000
#06217:00130000
#06218:00000013
#0621a:0000000000000013
#0631a:24000014240000142400000012000000
#0631c:0000000000120000
#06318:0000000000000012
#06317:0000000000130000
#06315:00000013
#06313:0000000000000013
#06316:24242400
#0631f:21
#06516:0000000000130013
#0651b:00000013
#06512:2400240024130013
#06517:00000013
#0651a:24000014240000142400000000000000
#0661b:0000000000130000
#06616:0000000000141212
#06618:00000000000000000000000000120012
#06612:24000014240000142400000000000000
#0661a:24242400
#06715:00000013000000000000000000000000
#0671c:0000000000120000
#06716:00000012
#06712:2600231626000012
#06718:00001600260000130000000012000000
#06717:0000000000120012
#0671a:24
#0671b:0023
#0771a:00000000240034003400000000000014
#0771b:13
#07712:0000003434000000
#07714:00000034
#07718:00000034
#07816:1414000014140000
#07812:00140000000000140000001400000000
#0781a:00000014000000000014000000000000
#07815:00000000001300000000000000000013
#07818:0000001300000000
#0781b:0000000000000013
#07810:41
#07918:13000000001300000000000000000000
#07912:000013000000000000000000000013002c000028000024000000000000000000
#0791b:0013000000001313
#07916:00000013000000000000000000140000
#07915:0000001300000000
#08012:00131300000000000000131300130000
#0801b:00131300
#08017:0000001300000000
#08018:00000000000000000000000000000013
#08016:00000000000000000000001400000000
#08015:0000000000000013
#08116:00000000001318000000001800000000
#08112:00000018000000131800000000131813
#0811b:1300000000130000
#08117:0013000000000000
#00818:13001300000000130000160000000000
#00815:00130000000013001300000000000000
#0081b:00000013000000000000000000000013
#00812:00000000001300000013001600000000
#00810:41
#02216:24000000140000131300140014001400
#02212:00000013130000000000130000001300
#0221b:00000013
#0221a:14
#03017:13
#03012:13140014
#0301a:0014
#03016:0014001400140014
#03216:00000000001400001300000000000000
#0321b:0000000013000013
#03212:0013001600130000
#03218:13000016000000000000000000000013
#03215:00130000000000000000000000000000
#06413:0000000000120000
#06415:00000012
#06417:0000000000000012
#06412:24000014240000142400000000000000
#06418:00000000000000000000000000120000
#0641a:00000000000000000000000000000012
#06416:24242400
#06410:41
#0681b:0000230000130000
#06816:0000000000001212
#06818:26000013000016002600000000120012
#06812:2416260023000000
#06815:00000000000000130000130000000000
#06912:2c0000132c0000002c00000000001300
#0691b:00000000000000130000130000000000
#06919:00000013
#06917:0000000000000013
#06916:0000000000130000
#06914:00000013
#06918:0013000000000000
#06915:0000001300000000
#0701b:00000013000000000000000000000000
#07012:2c0000002c0000132c13000013000000
#07018:0000001300130000
#07015:00001300000000000000001300000000
#0701a:00000000000000000000000000140014
#07016:0000000000000014
#08215:13000000000013000013001900000000
#08218:00130000001300001300000000000000
#0821b:00001300000000130000000000000000
#08212:00000019000000000000130000000016
#08315:00000000001300000000000000000000
#08318:0000001300000000
#0831b:00000000130000130000000000000000
#08312:000000002c001313
#08316:0000000000000000000000000000000000000028000000000000140000000000
#0831a:00000000000000000000002400000000
#00116:00000013000000000000000000001400
#00119:00000000130000000000131300000000
#00117:1300001300000000
#0011a:0014
#0011b:0013000000000000
#00114:00000000001300000000001400000000
#00112:13000000000000131300000000131300
#00217:00000013000000000000000000000000
#00214:00000000130000000000131300000000
#00216:1300001300000014
#00212:0013000014000000
#00218:00000000000000000000001400000000
#0021b:13000000000000131300000000131300
#00219:00000000001300000000000000000000
#00918:1300000000000000000000000000130000000014000000000000000000000000
#00915:00130000000013000000000000000000
#00912:0000131c001300000000000014001400
#0091a:0014
#00916:00000000000000000000001400000000
#01016:00120000140014000014000000001400
#01012:00000000130000001400001400000014
#0101b:0000001300000000
#01018:0012000000000000
#0101a:00000000000000000000140000140000
#01112:00001400000014001400000000140000
#01116:00000014000000140000001400000000
#0111a:14000000001400000000140000001400
#01412:14000000130000001414000000000013
#0141a:14140000000000000000000000000000
#01415:00001300000013000000001300130000
#01418:00000013001300000000130000001300
#0141b:00000000000000130000000013000000
#0151b:1313
#01518:00130013000013000013001300000000
#01515:00001300001300130000130000000000
#01512:00130014
#0151a:00000014
#01612:00000013000000130016001300000014
#0161b:00000000000000000000001300000000
#0161a:00000000000000000000000000140000
#01616:0000000000000014
#01615:00130000001300000000000000000000
#01618:0016
#01718:1600001300000000
#01712:00160013000000000000000013000000
#0171b:00000013001300000000000000000000
#01715:00000000000000130000000000000000
#01716:0000000000000014
#0181a:14000000000000001414000000000000
#01812:14140000000000130000000013000000
#01818:00001300000013000000001300130000
#01815:00000013001300000000130000001300
#0181b:00000000130000000000000000000013
#02016:14000013130000000000140000000000
#0201a:00140000
#02012:24000000000000131300000000001400
#0201b:0000000000130000
#02014:00000014
#02019:00000013
#02017:0000000000000013
#02010:41
#02116:1400000000000013
#02112:0000140000130000
#02117:00000013130000000000001300000000
#0211b:00000000000000131300000000000013
#02114:00000013
#02119:00000000000000000000000000130000
#0211a:24
#0231b:00000013130000000000000000000000
#02317:00000000000000131300000000000000
#02312:1400000000230000
#02316:24000000140000000000001400002300
#02318:00000000000000000000000000140000
#0231a:00000000000000000000000000000014
#02314:00000023
#02516:00000014000014001800130000000000
#0251a:00000000000000140000140000000000
#02512:2c14180000001300
#02515:0000000000000013
#02518:00000000000000000000000000130000
#0251b:00000000000000000000000000000013
#02616:00000014180014000000000013000000
#02612:2c000000000000141800140000001400
#0261a:0014000000001400
#02617:0000000000130013
#03317:0013
#03312:00000016000000001300000000000000
#03318:00130000000016000000000000001300
#03316:00000000001400000000000000000000
#0331b:0013000000130000
#03315:13000000000000000000000000131300
#03412:13230000
#03712:14000000000000140000000000001400
#03719:00120000000000000000000000000000
#03717:00001200000013130000000000000000
#03715:00000012000000000000000000000000
#0371a:0000140000141400
#03716:00000000000000000013130000140014
#04012:00000000001300130000001400000000
#0401a:0014
#04016:00000014000014000014140014141800
#0401b:0013130000000000
#04112:0013001300000013
#04116:00131313
#0411b:00131313
#04117:0013000000130000
#0451b:0013001300000013
#04517:00131313
#04512:00131313
#04516:0013000000130000
#04712:00140000001400000000001300000000
#04714:00000014000000140000000000000000
#0471a:0014
#04716:00000000000000000014000000000000
#0471b:00000000000000000000001300000000
#04715:00000000000000000000000000120000
#04717:0000000000000012
#04719:00000000000000000000000000000012
#04710:41
#04812:14000013000000000000000000001400
#04816:00140000000000000000000000000000
#0481b:00000013000000000000000000000000
#04819:00000000001200000000000000000000
#04817:0000001200000000
#04815:00000000000000120000000000000000
#0481a:0000000000001414
#05315:00130000000000000000000000000000
#05318:0013000000000000
#0531b:00000013000000000000000000000000
#05312:13000000140000001400140000000014
#05316:00000000001400140014001400140000
#0531a:0000001400000014
#0511a:00140000001400000000000000000000
#05118:00000014000000140000000000000000
#05112:00000000000000001400001300000000
#05116:00000000000000000014000000000000
#0511b:00000000000000000000001300000000
#05119:00000000000000000000000000120000
#05117:0000000000000012
#05115:00000000000000000000000000000012
#0521a:1400000000000014
#05216:00140000000000000000000000000000
#0521b:00000013000000000000000000000000
#05212:00000013000000000000000014001400
#05215:00000000001200000000000000000000
#05217:0000001200000000
#05219:00000000000000120000000000000000
#05415:0000000000130000000000001300000000000000000000000000000000000000
#0541b:13000000000000130000000000000000
#05412:00131c00
#05418:00001313001300000000000000001200
#05414:0000000000120000
#05416:00000012
#0561a:14000000000000000000000000120000
#05612:26000013130000000000000000000000
#05615:00000000260000131300000000000000
#05614:0000000000120000
#05616:00000012
#05618:00000000000000002600001200001200
#0561c:00000000000000000000000000000012
#05917:13000000000000131300000000000013
#0591b:00130013
#05912:1313
#05914:0013001300130013
#05916:00130013
#06017:13000000000000131300000000000000
#0601b:00130013
#06012:13000013
#06014:0013001300000000
#06016:00000000130000000000000000000013
#06116:13000000000000131300000000000013
#06112:00130013
#0611b:1313
#06119:0013001300130013
#06117:00130013
#07114:14
#0711a:00140014000000001400000000000000
#07112:00001400001313000000000000001300
#07116:0000001413140000
#07115:00000000000000000000000000000013
#07217:00000013000000001300000000001300
#07212:00000014000000001400000000001300
#0721b:00130000001313000000000000000000
#07218:13
#07216:0000001400140000
#07415:00000000001300000000130000000000
#07418:00000000000013000013000000000013
#0741b:00000000000000130000000000001300
#07412:14000000000000001400001300140000
#07416:0014000000000000
#0741a:00140014
#07316:1314001400140014
#0731b:13
#0731a:00140014
#07312:0014
#07516:00000000001400001400000000000000
#07512:0000001c00001c001400000000001300
#0751b:0013000000000000
#07518:00130000000000000000000000000000
#07515:13000000000000000000000000000013
#0751a:0000000000140000
#07612:0000132c00002c000000240000000000
#07615:00130000000000000000000000001300
#07618:13000000000000000000000000131300
#07616:00000000001400001400240000000000
#0761a:0014
#0841a:00140014000000140014000000140014
#08416:00001400001400001400001400001400
#08412:0000141400141400
#08514:00000000000000000000000000140014
#08516:2424242424000000
#0851a:0024002400000000
#08518:0000000000002424
#08512:24242400
#04412:00000000000000140000000000131600
#04418:00141600
#04416:00000014000014000013160000000000
#04414:00000000001400000000001316000000
#0441a:0014000000000000
#08616:2424242424000000
#08612:0024002400000000
#0861a:24242400
#00052:0014
#00058:00000000000000000000001400000000
#00056:0000000000000014
#0075a:0000001414000000
#00752:1400000000000014
#00756:00000014000000000000001400000000
#01952:001c
#02852:00000014000000000000000000000000
#02856:0000001400140000
#0285b:0000005300000000
#02857:0053
#0295a:00000014000000000000000000000000
#02956:0000001463140000
#02952:0000006300000000
#0315a:14
#03258:00000016000000000000000000000000
#03252:0000001600130000
#0325b:0053
#03257:0000000000130000
#03857:00000000000044000000000000000017
#03856:0044
#03952:0000000000000018
#04358:0000000000000016
#04956:00000000000000000000005400000000
#05555:00160000
#05552:0016
#05752:1c1c
#05852:1c3c4c00
#0635a:14141400
#06356:54540000
#06752:1616
#06758:00160000
#0785a:00000014000000000000000000000000
#07852:00000000000000000000001400000000
#07956:00000053000000000000000000000000
#0795b:0000000000000013
#08252:00000019000000000000000000000000
#08255:00000000000000000000001900000000
#08556:0014
#08552:0014
#00458:00000000000000000000001600000000
#00852:00000000000000000000001600000000
#05052:0000001c
#0015a:0014
#00156:0000000000000014
#00154:00000000000000000000001400000000
#00252:0014
#00256:0000000000000014
#00258:00000000000000000000001400000000
#00355:0033
#00358:0043
#0065b:00430000
#00652:0000003300000000
#01052:00330000
#0105b:0000004300000000
#01152:0000001414000000
#01156:00000014000000000000001400000000
#0115a:1400000000000014
#0125b:00000000000000000000001300000000
#01252:00000000000000000000001300000000
#01352:00000013000000000000000000000000
#0135b:00000013000000000000000013000000
#01552:00000014
#0155a:00000014
#0165b:00000000000000000000001300000000
#01652:00000000000000000000001300000000
#0175b:00000013000000000000000000000000
#01752:00000013000000000000000013000000
#02052:3433
#02056:54330000
#0205a:00540000
#02156:64
#02152:00640000
#02157:00430000
#0215b:0043
#0215a:44
#02252:00330000
#02256:34543300
#0225a:54
#0235b:00430000
#02357:0043
#02352:64
#02356:44640000
#02452:3c18
#02456:00180000
#02552:4c180000
#02556:0018
#02656:00180000
#02652:3c18
#0275a:14
#02756:00141400
#03052:00140014
#0305a:0014
#03352:00000016000000006300000000000000
#03358:0000001600000053
#0335b:0000000000130000
#03356:0000000000130000
#0345b:13
#03452:13
#03652:54
#0365a:0064
#04056:0000000000000018
#04157:0053001300530000
#0415b:00530053
#04152:0000005300130000
#04156:0053
#04252:14000014000014000000000000000000
#04556:0063001300630000
#04552:00630063
#0455b:0000006300130000
#04557:0063
#0465a:14141400
#0475b:00000000000000000000001300000000
#04752:00000000000000000000001300000000
#04852:00000013000000000000000000000000
#0485b:00000013000000000000000000000000
#0485a:00000014
#05356:00000000000000000000006400000000
#0515b:00000000000000000000001300000000
#05152:00000000000000000000001300000000
#0525b:00000013000000000000000000000000
#05252:00000013000000000000000014000000
#05452:001c
#05655:00160000
#05658:0016
#05952:2323
#05956:00230023
#05954:0053005300530053
#06052:23
#06054:0053005300000000
#06056:00230000
#0615b:2323
#06159:0063006300630063
#06157:00230023
#0625b:23
#06259:0063006300000000
#06257:00230000
#06452:14141400
#06456:64640000
#0655a:14141400
#06552:54540000
#06652:14141400
#0665a:64640000
#06858:1616
#06852:00160000
#06952:3c4c3c00
#07052:4c3c4c00
#0715a:00000014000000000000000000000000
#07156:0000001463140000
#07152:0000006300000000
#07252:00000014000000000000000000000000
#07256:0000001400140000
#0725b:0000005300000000
#07257:0053
#07552:0000001c00001c006400000000000000
#0755a:0000000000140000
#07556:0000000000140000
#07655:0000000000000063
#0765a:0054
#07652:0000001c00001c000000140000000000
#07656:0000000000140000
#0775b:13
#07752:13
#07356:00130013
#07357:0013
#07457:13
#0815b:13
#08152:00000018000000000000000000000000
#08156:0000001800000000
#08352:0000000000000013
#08656:0014
#0865a:0014
#04452:0000000000000016
#005360:0014
#0053a0:00000000000000000000002400000000
#005320:0000000000001424
#005360:00000000000000000000000000340000
#009360:0014
#009320:00000000000000000000002400000000
#0093a0:0000000000001424
#009360:00000000000000000000000000340000
#012320:13230000000000000000000000000000
#012350:00001323000000000000000000000000
#012320:00000000132300000000000000000000
#012350:00000000000013230000000000000000
#0133b0:0013
#013380:00000000000000000023000000000000
#013341:00000000000000000013000000000000
#013371:0000000000230000
#0133b0:0000000000130000
#013380:00000000000000000000002300000000
#013341:00000000000000000000001300000000
#013371:00000023
#0163b1:13230000000000000000000000000000
#016381:00001323000000000000000000000000
#0163b1:00000000132300000000000000000000
#016381:00000000000013230000000000000000
#017321:0013
#017351:00000000000000000023000000000000
#017390:00000000000000000013000000000000
#017360:0000000000230000
#017321:0000000000130000
#017351:00000000000000000000002300000000
#017390:00000000000000000000001300000000
#017360:00000023
#020360:14000000000000342400000000000000
#0203a0:00000034340000000000000000000000
#021360:14000000000000342400000000000000
#021320:00000034340000000000000000000000
#0223a0:14000000000000342400000000000000
#022360:00000034340000000000000000000000
#023320:14000000000000342400000000000000
#023360:00000034340000000000000000000000
#0283b0:0000001300230000
#028370:0033
#029320:0000001300230000
#029360:0033
#0303b0:0013000000000000
#030370:00230000
#030320:0000001300000000
#030360:0023
#0303b0:0000000000130000
#030370:00000023
#030320:0000000000000013
#031360:23
#0313b0:0013000000000000
#031370:00230000
#0323b0:0013
#032370:0000000000230000
#033320:0013
#033360:0000000000230000
#033380:0000000000000013
#0343b0:23
#0343b0:00130000
#034380:0000003300000023
#034350:00003333
#034320:0000000000330000
#034321:00130000
#034351:0000003300000023
#034381:00003333
#0343b1:0000000000330000
#036321:14
#036361:00000024000000000000000000000000
#0363a1:0014
#036361:00000000000000000000002400000000
#041371:0013002300000000
#0413b1:00330000
#041320:0000001300230000
#041360:0033
#041371:0000000000130023
#0413b1:00000033
#045361:0013002300000000
#045321:00330000
#0453b0:0000001300230000
#045370:0033
#045361:0000000000130023
#045321:00000033
#0473a1:14
#047381:00240000000000000000000000000000
#047381:0014000000000000
#0473a1:00000024000000000000000000000000
#0473a1:00140000
#047381:00000000002400000000000000000000
#047381:0000001400000000
#0473a1:00000000000000240000000000000000
#0483a1:0014
#048361:00000000000000000024000000000000
#048320:00000000000000000014000000000000
#048360:0000000000240000
#0483a1:0000000000140000
#048361:00000000000000000000002400000000
#048320:00000000000000000000001400000000
#048360:00000024
#049360:00000000000000000000001400000000
#049320:00000000000000000000000000240000
#051320:14
#051340:00240000000000000000000000000000
#051340:0014000000000000
#051320:00000024000000000000000000000000
#051320:00140000
#051340:00000000002400000000000000000000
#051340:0000001400000000
#051320:00000000000000240000000000000000
#052320:0014
#052360:00000000000000000024000000000000
#0523a1:00000000000000000014000000000000
#052361:0000000000240000
#052320:0000000000140000
#052360:00000000000000000000002400000000
#0523a1:00000000000000000000001400000000
#052361:00000024
#053361:00000000000000000000001400000000
#0533a1:00000000000000000000000000240000
#059321:1353
#059341:0053005300530053
#059361:00530053
#060321:5323
#060341:0053005300000000
#060361:00530000
#0613b1:1353
#061391:0053005300530053
#061371:00530053
#0623b1:5323
#062391:0053005300000000
#062371:00530000
#063361:14
#063321:00000024000000000000000000000000
#063361:00140000
#063321:00000000000000240000000000000000
#064361:14
#0643a1:00000024000000000000000000000000
#064361:00140000
#0643a1:00000000000000240000000000000000
#065321:14
#065361:00000024000000000000000000000000
#065321:00140000
#065361:00000000000000240000000000000000
#0663a1:14
#066361:00000024000000000000000000000000
#0663a1:00140000
#066361:00000000000000240000000000000000
#071321:0000001300230000
#071361:0033
#0723b1:0000001300230000
#072371:0033
#073321:0013000000000000
#073361:00230000
#0733b1:0000001300000000
#073371:0023
#073321:0000000000130000
#073361:00000023
#0733b1:0000000000000013
#074371:23
#074321:0013000000000000
#074361:00230000
#075321:0014
#075361:0000000000240000
#0763a1:0014
#076361:0000000000240000
#076351:0000000000000013
#077321:23
#077321:0000143400000000
#0773a1:0000000034340000
#077341:0000000000003424
#0773a0:0000143400000000
#077320:0000000034340000
#077380:0000000000003424
#079360:00000013000000000000000000000000
#079320:00000000002300000000000000000000
#080360:00142400000000000000000000000000
#080360:00142400
#080320:0000003400000000
#0833b0:13230000000000000000000000000000
#083351:00132300000000000000000000000000
#083380:00001323000000000000000000000000
#083321:00000013230000000000000000000000
