This file was generated by Ched 2.7.0.0.
#TITLE ""
#ARTIST ""
#DESIGNER ""
#DIFFICULTY 0
#PLAYLEVEL
#SONGID ""
#WAVE ""
#WAVEOFFSET 0
#JACKET ""
#REQUEST "ticks_per_beat 480"
#00002: 4
#BPM01: 128
#00008: 01
#TIL00: ""
#HISPEED 00
#MEASUREHS 00
#0001a:14
#00014:00140000
#00018:0014
#00012:00000014
#0011a:14
#00114:00140000
#00118:0014
#00112:00000014
#0021a:14
#00214:00140000
#00218:0014
#00212:00000014
#00412:1414
#00418:00140014
#00514:1414
#0051a:00140014
#00712:14
#00714:00343400
#0081a:1414
#00814:00140014
#00810:41
#00918:1414
#00912:00140014
#0111a:14
#01118:00343400
#02018:00140000
#02012:24
#02010:41
#02114:00140000
#0211a:24
#02218:00140000
#02212:24
#02314:00140000
#0231a:24
#02418:00140000
#02412:24
#02514:00140000
#0251a:24
#02618:00140000
#02612:24
#02714:00140000
#0271a:24
#02812:14
#02818:00140000
#02814:0014
#0281a:00000014
#02810:41
#02912:14
#02918:00140000
#02914:0014
#0291a:00000014
#03014:14
#03012:0000341434000000
#03118:14
#0311a:0000341434000000
#03214:14
#03218:00140000
#03212:0014
#0321a:00000014
#03314:14
#03318:00140000
#03312:0014
#0331a:00000014
#03414:14
#03412:00343434
#0351a:0014
#03514:0014
#03612:14
#03618:14
#0361a:0014
#03614:0014
#03712:1414
#03718:00140014
#03814:1414
#0381a:00140000
#0391a:14
#03914:00140000
#04012:14
#04018:00140000
#0411a:14
#04114:00140000
#04118:0014
#04112:00000014
#0421a:14
#04218:00343400
#04312:14
#04318:00140000
#0441a:14
#04414:00140000
#04512:14
#04518:00140000
#04514:0014
#0451a:00000014
#04612:14
#04614:00343400
#0471a:14140000
#04714:00001414
#04710:41
#04818:1400140000140000
#04812:00001414
#04912:14140000
#04918:00001414
#05014:1400140000140000
#0501a:00001414
#0511a:14
#05118:00140000
#05112:0014
#05114:00000014
#05218:1400000000140000
#0521a:00140000
#05214:00001414
#05312:14
#05314:00140000
#0531a:0014
#05318:00000014
#05414:14141400
#05418:0014001400000000
#0551a:14
#0551f:11
#05516:00240000
#05512:0024
#05612:14
#05616:00240000
#0561a:0024
#0571a:14
#05718:0014
#0591a:14
#05918:0014
#0601a:14
#06112:14
#06114:0014
#06212:14
#06314:00140000
#0631a:24
#0631f:21
#06418:00140000
#06412:24
#06410:41
#06514:00140000
#0651a:24
#06618:00140000
#06612:24
#06714:00140000
#0671a:24
#06818:00140000
#06812:24
#06914:00140000
#0691a:24
#07018:00140000
#07012:24
#07218:1414
#07212:00140014
#0711a:1414
#07114:00140014
#0741a:14
#07418:00343400
#07614:1414
#0761a:00140014
#07512:1414
#07518:00140014
#07712:14
#07714:00343400
#0781a:14
#07814:00140000
#07810:41
#07912:14
#07918:00140000
#0801a:14
#08014:00140000
#08018:0014
#08012:00000014
#08212:14
#08218:00140000
#0831a:14
#08314:00140000
#08412:14
#08418:00140000
#08414:0014
#0841a:00000014
#0031a:24
#05816:00240000
#05812:0024
#08512:24242400
#08518:0024002400002400
#08514:0000000000000024
#0861a:24242400
#08614:0024002400000000
#0035a:00000014
#00752:54
#0115a:64
#02052:14
#0215a:14
#02252:14
#0235a:14
#02452:14
#0255a:14
#02652:14
#0275a:14
#03054:54
#03052:0000002400000000
#03158:64
#0315a:0000002400000000
#03454:54
#0425a:54
#04652:64
#05454:0014
#0575a:54
#05758:0054
#0595a:54
#05958:0054
#0605a:54
#06152:64
#06154:0064
#06252:64
#0635a:14
#06452:14
#0655a:14
#06652:14
#0675a:14
#06852:14
#0695a:14
#07052:14
#0745a:54
#07752:54
#08552:0014
#0865a:0014
#0033a0:1434343434002400
#006320:14
#006340:00240000
#0063a0:0014
#006380:00000024
#007320:14
#007340:00343424
#0103a0:14
#010380:00240000
#010320:0014
#010340:00000024
#0113a0:14
#011380:00343424
#012320:14
#012330:00340034
#012340:0034
#013320:34
#013330:00340000
#013340:00003424
#0143a0:14
#014390:00340034
#014380:0034
#0153a0:34
#015390:00340000
#015380:00003424
#016340:14
#016330:00340034
#016320:0034
#017340:34
#017330:00340000
#017320:00003424
#018380:14
#018390:00340034
#0183a0:0034
#019380:34000034000034002400000000000000
#020340:00001424
#021380:00001424
#022340:00001424
#023380:00001424
#024340:0014
#024320:00000024
#025380:0014
#0253a0:00000024
#026340:0014
#026320:00000024
#027380:0014
#0273a0:00000024
#030340:14000024
#030320:0000345434000000
#031380:14000024
#0313a0:0000345434000000
#034340:14
#034320:00343434
#035320:24
#039380:00001424
#040340:00001424
#0423a0:14
#042380:00343424
#043340:00001424
#044380:00001424
#046320:14
#046340:00343424
#0573a0:14
#057380:0034
#0583a0:24
#0593a0:14
#059380:0034
#0603a0:34
#060380:0024
#061320:14
#061340:0034
#062320:34
#062340:0024
#063380:00001424
#064340:00001424
#065380:00001424
#066340:00001424
#067380:0014
#0673a0:00000024
#068340:0014
#068320:00000024
#069380:0014
#0693a0:00000024
#070340:0014
#070320:00000024
#0733a0:14
#073380:00240000
#073320:0014
#073340:00000024
#0743a0:14
#074380:00343424
#077320:14
#077340:00343424
#078380:00001424
#079340:00001424
#081340:14
#081320:00240000
#0813a1:14
#081381:00240000
#081381:0014
#0813a1:00000024
#081320:0014
#081340:00000024
#082340:00001424
#083380:00001424
