This file was generated by Ched 2.7.0.0.
#TITLE ""
#ARTIST ""
#DESIGNER ""
#DIFFICULTY 0
#PLAYLEVEL
#SONGID ""
#WAVE ""
#WAVEOFFSET 0
#JACKET ""
#REQUEST "ticks_per_beat 480"
#00002: 4
#BPM01: 190
#00008: 01
#TIL00: ""
#HISPEED 00
#MEASUREHS 00
#00513:14
#00619:14
#0111a:14
#01214:14
#01318:14
#01412:14
#0151a:14
#01614:14
#01718:14
#02018:14
#02010:41
#02114:14
#02412:14
#02512:14
#02618:14
#02718:14
#02814:14
#02914:14
#0301a:14
#03314:14
#03418:14
#03512:14
#03612:0016
#03618:26
#03718:1616
#03818:0016
#03812:26
#03912:1616
#04018:16
#04012:0016
#04118:16
#04112:0016
#04312:1616
#04318:00160016
#04418:0016
#04412:26
#04410:41
#04512:1616
#04612:0016
#04618:26
#04718:1616
#04812:16
#04818:0016
#04912:16
#04918:0016
#05918:14
#06014:14
#0611a:14
#06212:14
#06318:14
#07314:14
#07418:14
#07512:14
#08018:0016
#08012:26
#0801f:21
#08112:1616
#08110:41
#08212:0016
#08218:26
#08318:1616
#08412:16
#08418:0016
#08512:16
#08518:0016
#0721f:11
#0761a:24
#07614:24
#07712:24
#07718:24
#0781a:24
#07814:24
#01010:41
#03210:41
#05810:41
#000390:14
#004390:24
#007330:1400000000000034
#010330:24
#018320:14
#019320:24
#0223a0:14
#0233a0:24
#0313a0:14
#0323a0:24
#042380:1626
#050320:1600003600003636
#051320:0026
#052380:1626
#053320:1626
#054380:1626
#055320:1600000036000036
#058320:26
#064340:14
#065340:24
#066380:14
#067380:24
#068320:14
#069320:24
#0703a0:14
#0723a0:24
#0783a0:14
#0793a0:24
#078341:14
#079341:24
#086321:1600003600003636
#087321:0026
#088381:1626
#089321:1626
#090381:1626
#091321:1600000036000036
#096321:26
