This file was generated by Ched 2.7.0.0.
#TITLE ""
#ARTIST ""
#DESIGNER ""
#DIFFICULTY 0
#PLAYLEVEL
#SONGID ""
#WAVE ""
#WAVEOFFSET 0
#JACKET ""
#REQUEST "ticks_per_beat 480"
#00002: 4
#BPM01: 190
#00008: 01
#TIL00: ""
#HISPEED 00
#MEASUREHS 00
#00017:1200001200000000
#00013:0012000000000000
#00015:0000120000000012
#00014:0012
#00016:0000000000120000
#00018:00000012
#00117:12000012
#00119:0012000000000000
#00116:00120000
#00118:0000001200000000
#0011a:0000000012000012
#00114:0000000000120000
#00412:2300000000001313
#00417:0000000000000013
#0041b:23
#0051b:0000131300000000
#00512:0000000000001313
#00516:0000001300000000
#00517:0000000000000013
#00617:0000000000000013
#0061b:0013
#00612:0000000000000013
#0071b:1313
#00712:0000130000000013
#00717:0000130000000013
#00716:13
#01515:1313000000000000
#0151b:00130000000000000000000000000000
#01518:0000131313000000
#01512:00000000001300130000000000000000
#01618:0000131300000013
#0161b:23001313
#01612:23
#01715:1300130000001313
#01712:0013000013000000
#01718:0000001300000000
#0171b:0013
#01812:13130000
#01815:0000001300000013
#01818:00001313
#0181b:0000000000130000
#01912:13130000
#0191b:13130000
#01914:00000013
#01919:00000013
#0201b:13230000
#02012:23132313
#02019:0000001300000013
#02017:00001323
#02015:0000000000130000
#02010:41
#0211b:13231323
#02118:0013001300000000
#02112:23132313
#02115:0000000000000013
#02215:0000001300000000
#02213:0013
#02216:0000000000130000
#0221a:00000013
#02217:0000000000000013
#02212:23230000
#02219:0023
#02214:00000023
#02315:13
#02318:00130000
#0231b:23
#02312:00230000
#02416:1300000014001414
#02412:0000141400000000
#0251a:14
#02516:0000000014001414
#02512:0000141400000000
#02612:0000141400000000
#0261b:0013
#02618:0000000000130013
#02615:00000013
#0261a:14
#0271b:1323
#02718:0000130000130013
#02715:00000023
#02812:13
#02816:0000000014001414
#0281a:0000141400000000
#0281b:23
#03012:1413
#03018:00000013
#0301a:0000141400000000
#03015:0000000000130013
#03112:13
#03119:00130000
#0311b:0013
#03117:13
#03114:00130000
#03116:0013
#03212:13000012
#03217:13
#03210:41
#03314:1212
#03316:00120012
#03318:0012
#0331a:00000012
#0351a:0000001400000000
#03512:0014
#03514:0000000000140000
#03516:00000014
#03518:3333000000000014
#03515:3333000000000000
#0361b:0000000000001313
#03616:0000000000000013
#0361a:24
#03612:23
#03719:0000000000000013
#0381b:13
#03812:1400000000001313
#03817:0000000000000013
#03914:0000000000000013
#0401b:13130013
#04016:00130013
#04012:1313
#04017:0013
#04112:13
#04114:0013000000130000
#04119:0000001300000013
#04216:0000131300000000
#04217:13
#0421b:0000131300000000
#04914:0013000000130000
#04912:00130013
#04919:0000001300000013
#0491b:1313
#04916:2323
#04917:00230023
#05017:0000132300000000
#05012:0000132300000000
#05016:2300000000001323
#0501b:2300000000001323
#05118:0000000013131313
#05115:00000000000000000013001300130013
#0521b:13
#05212:0000000000001313
#05217:0000000000000013
#0531b:0000131300000000
#05312:0000000000001313
#05317:0000000000000013
#05316:0000001300000000
#0541b:00000000001300000000000000001300
#05416:00000000001300000000000000001300
#05517:13
#0551b:0000130000000013
#05512:1300000013000013
#05516:00130000
#05515:0000000000130000
#05518:00000013
#05812:13131313
#05815:0013000000130000
#0581b:13131313
#05818:0000001300000013
#05810:41
#0591b:1300001300001313
#05915:0013000000000000
#05918:00130000
#05912:1300000013130000
#05917:00000000000000000013000000000000
#05916:00000000000000000000000000130013
#06018:0013001300130013
#06015:00131313
#0601b:23000023
#06012:0000002300000000
#06115:13131313
#06118:0013001300130000
#06112:0023000000000013
#0611b:0023
#06215:1313000000000013
#0621b:1313000000000013
#06218:0000001313130000
#06212:0000001313130000
#0631b:00000000001300130000130000000000
#06318:1313000000001300
#06315:0000131313000013
#06312:00130000000000000000000000000000
#06412:13
#0641b:0000000000001313
#06416:0000000000000013
#06517:0000131300000000
#0651b:0000000000001313
#06516:0000000000000013
#06512:0000001300000000
#06817:00000013
#06819:0000000000000013
#06812:00000013
#06814:0000000000000013
#06916:1300000000333300
#06912:0033330013000000
#0691b:1300000000333300
#06917:0033330013000000
#07016:13
#07012:0013
#0701b:13
#07017:0013
#07112:0000001300000000
#07115:00001313
#07118:0000000000130013
#0721b:13
#07212:1300000000001313
#07217:0000000000000013
#0721f:11
#0731b:0000000000000013
#07417:13
#07416:0000000000001313
#0741b:0000000000000013
#07412:13
#07517:0000000000000013
#07619:00130000
#07617:0013
#07614:00000013
#07616:13
#0761b:23
#07612:0023
#07716:1313
#07719:0013000000130000
#07717:00130013
#07714:0000001300000013
#0771b:2323
#07712:00230023
#07817:0000132300000000
#07812:0000132300000000
#07816:23
#0781b:23
#0791b:0000001300000000
#07918:00001313
#07915:0000000000130013
#0801b:2300000000001313
#08016:0000000000003313
#08012:23
#0801f:21
#08112:00000000001300000000000000001300
#08117:00000000001300000000000000000000
#08110:41
#0831b:00000000001300000000000000001300
#08316:00000000001300000000000000000000
#08417:13000013
#08414:0000130000130000
#08412:13000013
#0841b:0013
#08419:00130000
#08416:0013
#08512:13231323
#0851b:0013000000130000
#08518:23132313
#08515:0000001300000013
#00217:1200001200000000
#00213:0012000000000000
#00215:0000120000000012
#00214:0012
#00216:0000000000120000
#00218:00000012
#00317:12
#00319:0012000000000000
#00316:00120000
#00318:0000001200000000
#0031a:0012
#0031b:00000023
#00312:00000023
#0081b:00000000000000000000000000130000
#00816:00000000000000000000000000130000
#02912:14
#02916:0000000014001414
#0291a:0000141400000000
#0341b:13
#03412:13
#03418:0000333333333333
#03415:0000333333333333
#04312:0000001400000000
#0431a:0014
#04318:0000000000140000
#04316:00000014
#04314:0000000000000014
#04412:2400000000001313
#04417:0000000000000013
#0441b:23
#04410:41
#04514:0000000000000013
#04612:13
#0461b:0000000000001313
#04616:0000000000000013
#0461a:14
#04719:0000000000000013
#04812:13130013
#04817:00130013
#0481b:1313
#04816:0013
#05615:00000000000000000000000000130000
#05618:00000000000000000000000000130000
#01018:0013000000130000
#01012:13131313
#01015:0000001300000013
#0101b:13131313
#01010:41
#01112:1300001300001313
#01118:0013000000000000
#01115:00130000
#0111b:1300000013130000
#01116:00000000000000000013000000000000
#01117:00000000000000000000000000130013
#01215:0013001300130013
#01218:00131313
#01212:23000023
#0121b:0000002300000000
#01318:13131313
#01315:0013001300130000
#0131b:0023000000000013
#01312:0023
#01418:1313000000000013
#01412:1313000000000013
#01415:0000001313130000
#0141b:0000001313130000
#06612:0000000000001313
#06617:0000000000000013
#06716:0000131300000000
#06712:0000000000001313
#0671b:0000001300000000
#06717:0000000000000013
#08212:0000000000001313
#08217:0000000000003313
#0821b:23
#08216:23
#08616:0000132300000000
#0861b:0000132300000000
#08617:2300000000001323
#08612:2300000000001323
#08715:0000000013131313
#08718:00000000000000000013001300130013
#08812:13
#0881b:0000000000001313
#08816:0000000000000013
#08912:0000131300000000
#0891b:0000000000001313
#08916:0000000000000013
#08917:0000001300000000
#09012:00000000001300000000000000001300
#09017:00000000001300000000000000001300
#09116:13
#09112:0000130000000013
#0911b:1300000013000013
#09117:00130000
#09118:0000000000130000
#09115:00000013
#0045b:53
#00452:0000000000000053
#0055b:0000005300000000
#00552:0000000000000053
#00752:0000000000000053
#00757:0000000000000053
#0085b:00000000000000000000000000230000
#00856:00000000000000000000000000230000
#0175b:0013
#0195b:13530000
#01952:00530000
#02355:13
#02358:00130000
#02456:0014
#0245b:13
#0255a:14
#02556:0014
#0265a:14
#02852:13
#02856:0014
#02952:14
#02956:0014
#03052:14
#0315b:0053
#03156:0053
#03257:53
#03252:53
#0345b:53
#03452:63
#03652:53
#03656:0000000000000053
#0365b:0000000000000053
#0365a:14
#03857:0000000000000053
#0385b:53
#03852:1400000000000053
#0425b:0000006300000000
#04256:0000006300000000
#04452:1400000000000063
#04457:0000000000000063
#0445b:63
#04652:63
#0465b:0000000000000063
#04656:0000000000000063
#0465a:14
#05056:1300000000000063
#0505b:1300000000000063
#05057:0000001300000000
#05052:0000001300000000
#0525b:53
#05252:0000000000000053
#0535b:0000005300000000
#05352:0000000000000053
#05357:0000000000000053
#0545b:00000000002300000000000000000000
#05456:00000000002300000000000000000000
#05655:00000000000000000000000000230000
#05658:00000000000000000000000000230000
#05552:0000000000000053
#0555b:0000000000000053
#06456:0000000000000053
#06452:53
#06552:0000005300000000
#06556:0000000000000053
#0655b:0000000000000053
#06752:0000000000000063
#0675b:0000005300000000
#06757:0000000000000053
#06657:0000000000000053
#06956:53
#06952:0053
#0695b:53
#06957:0053
#07056:53
#07052:0023
#0705b:53
#07057:0023
#0725b:53
#07252:0000000000000053
#07457:53
#07456:0000000000000053
#07852:0000005300000000
#07857:0000005300000000
#08052:53
#08056:0000000000000053
#0805b:1300000000000053
#08152:00000000002300000000000000000000
#08157:00000000002300000000000000000000
#08252:0000000000000063
#08257:0000000000000063
#0825b:63
#08256:13
#0835b:00000000002300000000000000000000
#08356:00000000002300000000000000000000
#08652:1300000000000053
#08657:1300000000000053
#08656:0000001300000000
#0865b:0000001300000000
#08852:63
#0885b:0000000000000063
#08952:0000006300000000
#0895b:0000000000000063
#08956:0000000000000063
#09057:00000000002300000000000000000000
#09052:00000000002300000000000000000000
#0915b:0000000000000053
#09152:0000000000000053
#04352:13
#04357:13
#05152:0013000000000000
#05157:0013000000000000
#0875b:0013000000000000
#08756:0013000000000000
#02052:13
#0043b0:13
#004370:00000023
#004320:0000000000000013
#005360:00230000
#0053b0:0000001300000000
#005370:00000023
#005320:0000000000000013
#006360:0023
#007360:0013
#007320:0000000000000033
#008360:00000000000000000000000000530000
#009320:00000023
#007371:0000000000000013
#0083b1:00000000000000000000000000530000
#009371:00000023
#016351:00001323
#018381:13230000
#019321:00130000
#019351:0023
#0193b0:00130000
#019380:0023
#022380:13230000
#023320:0013
#023350:0000000000230000
#023381:0000000000130000
#0233b1:00000023
#023350:00000013
#023320:0000000000000023
#023381:0000000000000013
#0243b1:23
#027321:13332300
#027351:0033003300000000
#0313b1:0013
#032371:33
#0323b1:0023
#031360:0013
#032320:33
#032360:0023
#0343b0:13
#034380:0000333333333333
#035380:3333230000000000
#034321:13
#034351:0000333333333333
#035351:3333230000000000
#036321:13
#036361:0000000000003333
#037321:00000023
#0363b0:0000000000000013
#037370:00000023
#0383b0:13
#038370:0000000000003333
#0393b0:00000023
#038321:0000000000000013
#039361:00000023
#041371:13
#041391:0033000000000000
#0413b1:00230000
#041360:00130000
#041340:0000003300000000
#041320:0023
#041371:0013
#041391:0000000000330000
#0413b1:00000023
#041360:00000013
#041340:0000000000000033
#042320:23
#0423b0:0000001300000000
#043370:23
#042361:0000001300000000
#043321:23
#0443b1:13
#044371:0000000000003333
#0453b1:00000023
#044320:0000000000000013
#045360:00000023
#046320:13
#046360:0000000000003333
#047320:00000023
#0463b1:0000000000000013
#047371:00000023
#050361:0000000000000013
#051321:0023000000000000
#0503b0:0000000000000013
#051370:0023000000000000
#0523b0:13
#052370:00000023
#052320:0000000000000013
#053360:00230000
#0533b0:0000001300000000
#053370:00000023
#053320:0000000000000013
#054360:00000000005300000000000000000000
#054320:00000023
#053371:0000000000000013
#0543b1:00000000005300000000000000000000
#054371:00000023
#055321:0000000000000013
#056351:00000000000000000000000000530000
#057321:00000023
#0553b0:0000000000000013
#056380:00000000000000000000000000530000
#0573b0:00000023
#064320:13
#064360:0000530000003333
#065320:0053333300000000
#065360:0000000000533333
#066320:0053000023000000
#0653b1:0000000000000013
#066371:0053000023000000
#066371:0000000000001333
#0673b1:0053333300000000
#067371:0000000000533333
#0683b1:0053000023000000
#067320:0000000000000013
#068360:0053000023000000
#069360:1300000000333333
#069320:0033333333000000
#070360:33
#070320:0053
#071360:23
#0693b1:1300000000333333
#069371:0033333333000000
#0703b1:33
#070371:0053
#0713b1:23
#0723b1:13
#072371:00000023
#072321:0000000000000013
#073361:0000000000000023
#074371:13
#0743b1:00000023
#074361:0000000000000013
#075321:0000000000000023
#078321:0000001300000000
#079361:23
#078370:0000001300000000
#0793b0:23
#080320:13
#080360:0000000000003333
#081320:00000000005300000000000000000000
#081360:00000023
#0803b1:0000000000000013
#081371:00000000005300000000000000000000
#0813b1:00000023
#0823b1:13
#082371:0000000000003333
#0833b1:00000000005300000000000000000000
#083371:00000023
#082320:0000000000000013
#083360:00000000005300000000000000000000
#083320:00000023
#086370:0000000000000013
#0873b0:0023000000000000
#086321:0000000000000013
#087361:0023000000000000
#088321:13
#088361:00000023
#0883b1:0000000000000013
#089371:00230000
#089321:0000001300000000
#089361:00000023
#0893b1:0000000000000013
#090371:00000000005300000000000000000000
#0903b1:00000023
#089360:0000000000000013
#090320:00000000005300000000000000000000
#090360:00000023
#091320:0000000000000013
#096350:23
#0913b1:0000000000000013
#096381:23
