This file was generated by Ched 2.7.0.0.
#TITLE ""
#ARTIST ""
#DESIGNER ""
#DIFFICULTY 0
#PLAYLEVEL
#SONGID ""
#WAVE ""
#WAVEOFFSET 0
#JACKET ""
#REQUEST "ticks_per_beat 480"
#00002: 4
#BPM01: 190
#00008: 01
#TIL00: ""
#HISPEED 00
#MEASUREHS 00
#00418:0000000000000013
#00415:00000013
#00412:23
#0041b:23
#00515:0000001300000000
#00518:0000000000000013
#00718:1300130000000013
#00712:0000130000000013
#0071b:0013
#00715:0013
#01515:13
#0151b:0000001300000000
#01516:0013
#01514:00000013
#01519:0000000000130000
#01517:0000000000000013
#01618:00130000
#01615:0000001300000000
#0161b:0013
#01612:23
#01715:1300130000000013
#01718:0013001300001300
#01712:0013
#01812:0000001300000000
#01818:1313
#01815:0000000000130013
#0181b:00000013
#02018:0000001300002300
#02015:0000230000130000
#0201b:2300000000000013
#02012:0023
#02010:41
#02118:0013000000002300
#0211b:0000001300000000
#02115:2300000023000013
#02112:00230000
#02218:0000001300000013
#0221b:2300000000130000
#02212:00230000
#02215:00002323
#02412:00141400
#02418:0000001400000000
#0241a:14000014
#02414:0000000000000014
#0251a:14000014
#02512:00141400
#02518:0000001400000000
#02514:0000000000000014
#02612:0013
#02618:0000000000130000
#02615:00000013
#0261b:0000000000000013
#0261a:14
#02715:13130000
#02718:0013001300000000
#02712:0024
#02716:00000024
#0301b:0013
#03019:00000013
#03014:00000013
#03012:14
#03016:0013
#03112:13
#03119:00130000
#03117:13
#03114:00130000
#03214:00000012
#03210:41
#03318:12
#03315:00120000
#03319:0012
#03316:00000012
#03512:0000001400000014
#03518:0014
#03514:0000000000140000
#0351a:00000014
#03615:00000013
#03618:2400000000000013
#03712:0000000000000013
#0381b:0000000000000013
#03815:00000013
#03818:14
#03915:0000000000000013
#0401b:13
#04015:0013
#04018:00130000
#04012:00000013
#04218:00130000
#04215:1300001300000000
#04918:0013000000130000
#0491b:0000001300000013
#04915:00230023
#04912:2323
#05018:00130013
#05015:2300000000000023
#05012:0000002300000000
#05212:13
#05218:13
#0521b:0000000000001313
#05215:0000000000001313
#05418:0000000000000013
#05518:0000130000000013
#05515:1313
#05512:0000130000000013
#0551b:0013
#06418:13
#0641b:0000000000000013
#06818:00000013
#06815:0000000000000013
#07112:0000001300000000
#07118:00001313
#07115:0000000000130013
#0721b:13
#07218:0000000000001333
#0721f:11
#07312:0000000000000013
#0761b:00130000
#07618:00000013
#07615:2323
#07718:0013000000130000
#0771b:0000001300000000
#07712:2323
#07715:00230023
#07818:0000132300000000
#07812:0000132300000000
#07815:23
#0781b:23
#0791b:0000001300000000
#07915:00001313
#07918:0000000000130013
#00615:0000000000000013
#01918:13000013
#01912:00130000
#0191b:00130000
#01915:0013
#0341a:14
#0561b:00000000000000000000000000130000
#05615:00000000000000000000000000130000
#01018:0013000000130000
#0101b:0000001300000013
#01012:1313
#01015:00130013
#01010:41
#01112:1313
#01118:0013000000001300
#01115:0000130000000013
#0111b:0000001300000000
#01215:0013002300000013
#0121b:00130000
#01218:23001323
#01212:0000000000130000
#0131b:13
#01318:00132313
#01312:0000001300000000
#01315:0023000000130013
#0141a:1414000000000000
#01412:0000001414140000
#01418:0000000000000013
#0651b:0000000000000013
#06518:0000001300000000
#06615:0000000000000013
#06712:0000001300000000
#06715:0000000000000013
#09115:0000130000000013
#0911b:0000130000000013
#09118:1313
#09112:0013
#00012:12
#0001c:12
#02315:13
#02318:00130000
#0231b:23
#02312:00230000
#0281a:24141400
#02814:0000001400000000
#02812:00000014
#02818:0000000000000014
#02912:14000014
#0291a:00141400
#02914:0000001400000000
#02918:0000000000000014
#0431a:0000001400000014
#04314:0014
#04318:0000000000140000
#04312:00000014
#04418:00000013
#04415:0000000000000013
#04414:24
#04410:41
#0451b:0000000000000013
#04612:0000000000000013
#04618:00000013
#04614:14
#04718:0000000000000013
#04812:13
#04818:0013
#04815:00130000
#0481b:00000013
#05118:00000013
#05312:0000001300000000
#05315:0000000000000013
#05318:0000001300000000
#0531b:0000000000000013
#05815:0013000000130000
#05812:0000001300000013
#0581b:1313
#05818:00130013
#05810:41
#0591b:1313
#05915:0013000000001300
#05918:0000130000000013
#05912:0000001300000000
#06018:0013002300000013
#06012:00130000
#06015:23001323
#0601b:0000000000130000
#06112:13
#06115:00132313
#0611b:0000001300000000
#06118:0023000000130013
#06212:1414000000000000
#0621a:0000001414140000
#06215:0000000000000013
#06318:1300000000130000
#0631b:0013
#06315:00000013
#06312:0000000000000013
#0691b:13
#06912:0013
#0701b:13
#07018:0013
#07412:13
#07415:0000000000001333
#07518:0000000000000013
#08018:0000000000001313
#08012:24
#0801f:21
#08115:0000000000000013
#08110:41
#08215:0000000000001313
#0821a:24
#08318:0000000000000013
#08412:13
#08418:0013
#0841b:00130000
#08415:00000013
#08515:0013000000130000
#08512:0000001300000013
#08518:00230023
#0851b:2323
#08615:00130013
#08618:2300000000000023
#0861b:0000002300000000
#0881b:13
#08815:13
#08812:0000000000001313
#08818:0000000000001313
#09015:0000000000000013
#08715:00000013
#0891b:0000001300000000
#08918:0000000000000013
#08915:0000001300000000
#08912:0000000000000013
#0031b:00000023
#00312:00000023
#0411b:0033000000330000
#04118:0000003300000000
#00458:0000000000000053
#00555:0000005300000000
#00558:0000000000000053
#00752:0000000000000053
#00758:0000000000000053
#02452:0014
#0245a:14
#0255a:14
#02552:0014
#0345a:54
#03658:1400000000000053
#0385b:0000000000000053
#03858:14
#04255:0000006300000000
#05055:1300000000000063
#05052:0000001300000000
#05252:53
#05258:53
#05255:0000000000000053
#0525b:0000000000000053
#0565b:00000000000000000000000000230000
#05655:00000000000000000000000000230000
#05558:0000000000000053
#05552:0000000000000053
#0645b:0000000000000053
#06458:53
#06558:0000005300000000
#0655b:0000000000000053
#06655:0000000000000063
#06752:0000006300000000
#06755:0000000000000063
#0725b:53
#07258:00000023
#07852:0000005300000000
#07858:0000005300000000
#0915b:0000000000000053
#09155:0000000000000053
#04352:13
#01958:13
#0205b:13
#00052:52
#0005c:62
#01752:0013
#0165b:0053
#01858:53
#0265a:14
#0285a:0014
#02952:14
#0295a:0014
#03052:14
#04455:0000000000000063
#04454:14
#04652:0000000000000063
#04654:14
#05352:0000005300000000
#05355:0000000000000053
#05358:0000005300000000
#0535b:0000000000000053
#0695b:53
#06952:0053
#0705b:53
#07058:0023
#07452:63
#07455:00000023
#08058:0000000000000063
#08052:14
#08255:0000000000000063
#0825a:14
#08658:1300000000000053
#0865b:0000001300000000
#0885b:63
#08855:63
#08858:0000000000000063
#08852:0000000000000063
#0895b:0000006300000000
#08958:0000000000000063
#08955:0000006300000000
#08952:0000000000000063
#000320:12
#003350:0023
#0003c1:12
#003381:0023
#004381:0000000000000013
#0053b1:00230000
#005351:0000001300000000
#005321:00000023
#005381:0000000000000013
#0063b1:0023
#007321:0000000000000013
#009351:00000023
#007380:0000000000000013
#0093b0:00000023
#0163b0:0013
#016380:00000023
#018380:13
#0183b0:00230000
#0313b0:0013
#032370:23
#031361:0013
#032321:23
#0343a1:14
#035361:24
#036381:0000000000000013
#0373b1:00000023
#0383b1:0000000000000013
#039381:00000023
#0413b1:1333000033330000
#041381:0000333300002300
#042351:0000001300000000
#043321:23
#044351:0000000000000013
#045321:00000023
#046321:0000000000000013
#047351:00000023
#050351:0000000000000013
#051321:0023
#052321:13
#052351:0023
#052380:13
#0523b0:0023
#052350:0000000000000013
#053320:0000333300000000
#053350:0000000000003333
#054320:0023
#0523b1:0000000000000013
#053381:0000333300000000
#0533b1:0000000000003333
#054381:0023
#055381:0000000000000013
#0563b1:00000000000000000000000000530000
#057381:00000023
#055320:0000000000000013
#056350:00000000000000000000000000530000
#057320:00000023
#064380:13
#0643b0:0000530000003333
#065380:0053333300000000
#0653b0:0000000000533333
#066380:0053000023000000
#066350:0000000000001333
#067320:0053333300000000
#067350:0000000000533333
#068320:0053000023000000
#0693b0:13
#069380:0023
#069321:0013
#070351:23
#0703b0:13
#070380:0053
#0713b0:23
#0723b0:13
#072380:0000000000003333
#0733b0:0023
#074320:13
#074350:0000000000003333
#075320:0023
#078320:0000001300000000
#079350:23
#078381:0000001300000000
#0793b1:23
#080381:0000000000000013
#0813b1:00000023
#082351:0000000000000013
#083321:00000023
#086381:0000000000000013
#0873b1:0023
#0883b1:13
#088381:0023
#088350:13
#088320:0023
#088380:0000000000000013
#0893b0:0000333300000000
#089380:0000000000003333
#0903b0:0023
#088321:0000000000000013
#089351:0000333300000000
#089321:0000000000003333
#090351:0023
#091351:0000000000000013
#096321:23
#0913b0:0000000000000013
#096380:23
