This file was generated by Ched 2.7.0.0.
#TITLE ""
#ARTIST ""
#DESIGNER ""
#DIFFICULTY 0
#PLAYLEVEL
#SONGID ""
#WAVE ""
#WAVEOFFSET 0
#JACKET ""
#REQUEST "ticks_per_beat 480"
#00002: 4
#BPM01: 190
#00008: 01
#TIL00: ""
#HISPEED 00
#MEASUREHS 00
#0001c:12
#00016:00120000
#00019:0000001200000000
#00017:0000000000120000
#0001a:00000012
#0041b:00000013
#00417:0000000000000013
#00412:24
#0041a:24
#00517:1300130000000013
#00516:0000001300131300
#0051b:0013000000000000
#00512:0000000013000013
#00712:0000130000000013
#0071b:1300000013000013
#00716:00141400
#00718:0000000000131300
#00715:00000000000000000000001300000000
#01515:1313000000000000
#0151b:00130000000000000000000000001300
#01518:0000131300000000
#01512:00000000001300130000130000000000
#01617:00130013
#01619:0000001300000000
#0161b:0000000013000013
#01616:0000000013000013
#01612:00130000
#01614:0000001300000000
#01618:23
#01718:13
#01715:0016001613000000
#01712:13130000
#0171b:00131313
#01716:00000013
#01714:0000000000000013
#01719:0000000000000013
#02016:1300001800000018
#0201b:23132313
#02012:0000230013182300
#02010:41
#02117:0013001300000000
#0211b:23232313
#02119:0000000000130013
#02114:0000000000130013
#02112:00000023
#02217:0000001700000000
#02216:0013000013000000
#02215:0000000000170000
#02214:00000013
#02213:0000000000000017
#02212:13
#0221a:24242400
#02218:00000026
#02412:1400141418001414
#0241a:00140000
#02418:0000001400000014
#02416:00000014
#02612:1c00141414000014
#0261a:0000140000140000
#02616:00001414
#02618:0000001400000000
#03112:1313
#0311b:00130013
#03116:14141414
#03118:0014000000140000
#03114:0000001400000014
#03317:12121200
#03312:00120000
#0331c:1212
#0331a:00000012
#03314:00000012
#03315:0000001200000000
#03316:0000000000120000
#03318:00000000000000000000001200000000
#03319:0012000000000000
#0351a:0000001400000000
#03512:0000161414000000
#03514:1400000000140000
#03516:00000014
#03518:1415160000000014
#03513:0015000000000000
#03712:1400000000000013
#0371b:0000130000130000
#03716:00140013
#03717:1313
#04116:13
#04112:0013000000130000
#04117:0000001300000013
#04915:0013000000002300
#0491b:0000001323000000
#04918:0000230000130000
#04912:2300000000000013
#05017:0013130013131300
#05012:0013130013131300
#05016:2400002400000000
#0501a:2400002400000000
#05019:0000000000000023
#05014:0000000000000023
#0511b:13001313
#05115:00000000000013000013000000130000
#05118:0000000000130013
#05112:00000000130000000000001300000013
#05116:1324000000000000
#0511a:0024000000000000
#05216:00000013
#05212:0000001313000013
#0521b:13000013
#05217:0000000000000013
#05312:00000013
#05316:0014001400140000
#05315:00000000000000000000000000130000
#05318:0000000000000013
#0711b:0013001300000000
#07117:0013
#07118:0000130000130000
#07119:00000013
#0711a:0000000000000013
#07115:13000013000000130000000000000013
#07112:00000000001300000013000000000000
#07113:00000000000000000000001300000000
#07114:00000000000000000000000000130000
#07612:001c261c
#07618:2613
#07714:1414
#07716:0014001400140014
#07718:26142614
#07712:00260026
#07818:2600132613000013
#07815:0013000000130000
#0781b:00000013
#07812:2600002600001300
#0791a:0014141400000000
#07912:0014141413000000
#07914:0000000000130000
#07916:00000013
#07918:0000000000000013
#07915:13
#00113:0000000000120000
#00117:00000012
#0011b:0012000000000012
#00118:12
#00119:0000001200000000
#0011c:0012
#00217:1200000000120000
#00216:00120000
#00219:0000001200000000
#0021a:00000012
#0401b:0013130000131300
#04017:1300001313000013
#04316:13000000000014000013000000000000
#0431a:0013
#04319:0000000000130000
#04318:00000013
#04317:0000130000000013
#04315:00000000000000000000001300000000
#04314:00001800000000000000000000130000
#04313:00000000000000000000000000000013
#0431b:13
#04312:00130000
#01017:0013000000130000
#01016:0000001300000000
#01015:0000000000000013
#0101b:13
#01010:41
#01112:1300130013130000
#01118:00001300000000000013000000000000
#01116:0000001300000000
#0111b:0000001300001313
#01115:00000000000000000000000000130013
#01117:00130000
#01218:0013000000130013
#01215:0000131613001600
#0121b:23000023
#01212:2300002300000000
#01417:1313000013000000
#01412:1313000013000013
#01416:0000001300130000
#0141b:0000001300130013
#0131b:0000000023000013
#01315:1316130016001300
#01318:0000001300130000
#01312:0023000000000013
#01914:00000013
#01919:00000013
#01912:13
#01918:13
#01916:00130000
#0191b:00130000
#01917:0013
#00318:12
#0031b:0012000000000000
#00319:0000001200000000
#0031c:0012
#00317:0000000000120000
#0031a:00000024
#00312:00000024
#0061b:13131313
#00615:00130000001300000013000000130000
#00618:0013001300130013
#00612:00000013000000130000001300000013
#00812:0000001300000000
#00818:0000001600000000
#00815:0000000016000016
#0081b:00000013
#0091b:1300000000000013
#00912:1600001313000000
#00915:0016000000160000
#00918:0016
#01812:1300001300001300
#01816:00130000
#01817:1300001300000000
#01815:0000000013160016
#0181b:00001313
#02312:132c0000
#02316:28
#02512:1c00141418001414
#0251a:00140000
#02518:0000001400000014
#02516:00000014
#02816:23001814
#0281a:1400141400001414
#02812:00140000
#02814:0000001400000014
#02912:1c140000
#02916:00001814
#0291a:0000141400001414
#02914:0000001400000014
#03012:1c00140000140000
#0301a:0000141414000014
#03016:00001414
#03014:0000001400000000
#03216:14
#03212:13
#0321c:00121200
#0321a:0000000000120000
#03218:00120012
#03210:41
#03412:13130000
#0341b:13130000
#0341a:0000001300000000
#03419:0013
#03418:0000000000131313
#03413:0000001300000000
#03414:0013
#03415:0000000000131313
#0361b:0000130000131300
#03617:0013
#03619:0000000000000013
#0361a:24
#03612:24
#0541b:13
#05416:0012120000000000
#05418:00000012001200130013001400150016
#05415:0000001313000000
#05414:0000000000140000
#05413:00000015
#05412:1300000000000016
#0551b:0000130000000013
#05512:1c00000013000013
#05516:00141400
#05515:0000000000131300
#05518:00000000000000000000001300000000
#05816:0013000000130000
#05817:0000001300000000
#05818:0000000000000013
#05812:13
#05810:41
#0591b:1300130013130000
#05915:00001300000000000013000000000000
#05917:0000001300000000
#05912:0000001300001313
#05918:00000000000000000000000000130013
#05916:00130000
#06015:0013001600131613
#06018:00131300
#06012:23000023
#0601b:2300002300000000
#06112:0000000023000013
#06118:13130013
#06115:0016001316130000
#0611b:0023000000000013
#0561b:0000001300000000
#05612:0000001600001300
#05615:0000000016000016
#05712:1300000016000013
#05718:16
#05715:0016000000160000
#0571b:0000001313000000
#03812:1400130000131300
#0381a:14
#03816:0013
#03814:0000000000000013
#0421b:1313
#04212:00130013
#04217:00130013
#04214:0000001800180018
#04216:0013
#04519:0000000000000013
#04516:13140000
#04512:00130013
#0451b:0013
#04514:0000000000130000
#04517:00000013
#0451a:14
#04412:24130013
#04416:00141300
#04414:0000000000130013
#0441a:24
#04410:41
#0461a:14
#0461b:00130013
#04617:0013
#04619:0000000000130013
#04616:00140000
#04612:14
#04714:0000000000000013
#04717:13
#0471b:00130013
#04712:1413
#04719:0000000000130000
#04716:00140013
#04812:1313
#04816:14131413
#0481a:00140014
#04814:0013001300130013
#06318:1313000000000000
#06312:00130000000000001c00190016001300
#06315:0000131300000000
#0631b:00000000001300130000000000000000
#06216:1313000013000000
#0621b:1313000013000013
#06217:0000001300130000
#06212:0000001300130013
#0641b:1300000000000013
#06418:0013000000261300
#06415:0000130029130000
#06412:2926001313000000
#0651b:1300000000000013
#06518:0013000000261300
#06515:0000130029130000
#06512:2926001313000000
#0661b:13
#06618:0013000000260000
#06615:0000001629130016
#06612:2926000013000000
#0671b:13
#06718:0013000000261313
#06712:2926000013000000
#06715:00000000000016002900130000130013
#0681b:1300130000000013
#06812:1300130000000013
#06818:0000001300130000
#06815:00001313
#0691b:0000000013130000
#06912:0000000000001313
#06916:1313000000000000
#06917:0000131300000000
#07018:00001300130000001300130000000013
#07015:00000013001300000013001300000000
#07012:2300002300000013
#0701b:23000000000023000000000023230000
#0721b:13
#07212:0012000000000000
#07214:0000120000120000
#07216:0000001200001200
#07218:0000000012000012
#0721f:11
#07312:12
#0731a:22
#0731b:0000002200000000
#0731c:00000022
#07418:12
#0741c:0012
#07412:22
#07516:12
#07512:0012
#0751a:0022
#08114:0000000000000013
#08117:1313
#08119:0000001300130000
#08116:00130013
#08112:14
#0811b:00000013
#08110:41
#08014:0000001300000000
#08017:0013
#0801b:0000000000130000
#08016:00140013
#08012:2600000000000013
#08019:0013000000000000
#0801a:24
#0801f:21
#08319:0000000000000013
#08316:1313
#08314:0000001300130000
#08317:00130013
#0831a:14
#08312:00000013
#08219:0000001300000000
#08216:00141300
#08212:2400000000130000
#08217:00000013
#0821b:0000000000000013
#08214:0013000000000000
#08218:26
#08518:0013000000002300
#08512:0000001323000000
#08515:0000230000130000
#0851b:2300000000000013
#08616:2413132413131300
#0861b:0013130013131300
#08612:2400002400000000
#08614:0000000000000023
#08619:0000000000000023
#08712:1324000013001300
#08718:00000000000013000013000000130000
#08715:0000000000130013
#0871b:00000000130000000000001300000013
#08717:13
#08716:0024000000000000
#08916:0014001400140000
#0891a:1414
#08912:00140000
#0891b:00000013
#08918:00000000000000000000000000130000
#08915:0000000000000013
#0841b:1313
#08416:1414
#08417:00130013
#08412:00140014
#08419:0013001300130013
#0881a:0014000000140000
#08812:0000001400000014
#09012:13000000000000000000000000000016
#09018:0012121313141516
#09016:00000012001200000000000000000000
#09015:00000000000000130013000000000000
#09014:00000000000000000000001400000000
#09013:00000000000000000000000000150000
#0901b:13
#09112:1c00130000000014
#0911b:0013
#09116:00141400
#09118:0000000000131300
#09115:00000000000000000000001300000000
#0911a:0000000000000014
#09218:0013000000000000
#09215:00000013000000000000000000000000
#09212:00130000
#0921b:00130000
#0941b:0013000000000000
#09412:0013000000000000
#03916:1300140000000013
#03917:0000000000130000
#0391a:14
#03912:00130013
#0391b:0013
#02716:13132300
#02714:0000000000130013
#0271a:0000000000141414
#02712:0013001300002300
#00452:64
#0175b:0013
#0505a:1400001400000000
#05056:1400001400000000
#0075b:0000000000000053
#00752:0000000000000053
#0125b:13000013
#01252:0000001300000000
#01352:0013000000000000
#0135b:0013
#01656:0053
#01857:63
#01952:13
#0195b:00130000
#01956:00530000
#0205b:13
#0225a:44444400
#02258:00000046
#02252:53
#02256:0023000000000000
#02356:48
#02352:004c0000
#02452:1448
#02552:4c48
#02652:4c
#02856:0038
#0285a:14
#02952:3c
#02956:0038
#03052:3c
#03152:3333
#0315b:00430043
#03252:33
#03652:34
#0365a:44
#05552:1c00000000000063
#0555b:0000000000000063
#0605b:0000001300000000
#06052:13000013
#0615b:0013000000000000
#06152:0013
#05952:13
#05852:1313
#0585b:00130013
#0105b:1313
#01052:00130013
#0115b:13
#03752:34
#03852:34
#0385a:44
#0425b:1313
#04356:13
#04357:00130000
#0455a:44
#04556:53
#04552:00530000
#0465a:44
#04652:34
#04452:34
#0445a:44
#04757:63
#0475b:00630000
#04752:34
#04856:4444
#0485a:00440044
#05156:0014000000000000
#0515a:0014000000000000
#0525b:53
#07352:52
#07458:52
#0745c:0022
#07556:62
#07552:0022
#07658:16
#07652:0016
#07758:4646
#07752:00360036
#07858:4600004600000000
#07852:3600003600000000
#05356:0034004400340000
#08157:63
#08152:34
#08156:00530000
#0805a:44
#08052:36
#08356:53
#0835a:44
#08357:00630000
#08252:34
#08258:46
#08956:0044003400440000
#08456:3434
#08452:00340034
#08656:1400001400000000
#08652:1400001400000000
#08756:0014000000000000
#08752:0014000000000000
#0885a:0044000000440000
#08852:0000003400000034
#09152:1c00000000000034
#0915a:0000000000000044
#09252:00530000
#0925b:00630000
#0945b:0023000000000000
#09452:0023000000000000
#0395a:44
#000320:0012002200000000
#000330:00001222
#000340:0000000000000012
#001340:0022000000000000
#001350:00122200
#002320:0012002200000000
#002330:00001222
#002340:0000000000000012
#003340:0022000000000000
#003350:00122200
#004320:14
#004360:00000024
#004320:0000000000000013
#005320:33230000
#005360:0033000000000000
#0053b0:0000001300332300
#005370:0033
#007320:0000000000000013
#008350:00230000
#0073b1:0000000000000013
#008381:00230000
#008351:0000000000132300
#009381:0000132300000000
#009351:0000000000001323
#010321:13230000
#0103b0:00132300
#010321:00001323
#0103b0:00000013
#0113b0:23
#015380:00001323
#0153b0:0000000000330000
#015351:00000013
#015321:0000000000000033
#016351:23
#016361:0013
#016321:00000023
#018371:13
#0183b1:00230000
#019361:00130000
#019321:0023
#021361:13332300
#021321:0033003300000000
#022321:13230000
#022361:0053000000000000
#023321:0014
#023361:0000000000240000
#023370:00001333
#0233b0:0000000000330033
#024370:23
#023321:00000014
#023361:0000000000000024
#0273b0:13332300
#027370:0033003300000000
#032360:0012
#032340:0000000000320000
#032320:00000022
#036360:00000000140000000054000024000000
#036320:00000000005400003400000000000000
#037320:0013
#037360:00000000000000000053230000000000
#0373b0:00000013
#037370:00000000000000000000000000532300
#038360:00000000140000000054000024000000
#0383a0:00000000005400003400000000000000
#039360:0013
#039320:00000000000000000053230000000000
#039370:00000013
#0393b0:00000000000000000000000000532300
#040320:13
#040360:0023000000000000
#040360:00130000
#040320:0000002300000000
#040320:0013
#040360:0000000000230000
#040360:00000013
#040320:0000000000000023
#0413b0:13230000
#041370:0033000000000000
#041361:00132300
#041321:0000003300000000
#0413b0:00001323
#041370:0000000000330000
#041361:00000013
#041321:0000000000000033
#042361:23
#0443a1:0014
#044381:0000000000240000
#044361:00000014
#044381:0000000000000024
#045361:1300005323000000
#045321:0053330000000000
#046321:0014
#046341:0000000000240000
#046361:00000014
#046341:0000000000000024
#047371:1300005323000000
#0473b1:0053330000000000
#0493b1:13
#049381:0023000000000000
#049351:00130000
#049321:0000002300000000
#049321:0013
#049351:0000000000230000
#049381:00000013
#0493b1:0000000000000023
#0523b1:13
#052371:0023
#0533a1:1424000000000000
#053321:0000142400000000
#0533a1:0000000014240000
#0553b1:0000000000000013
#056381:00230000
#055320:0000000000000013
#056350:00230000
#056380:0000000000132300
#057350:0000132300000000
#057380:0000000000001323
#0583b0:13230000
#058321:00132300
#0583b0:00001323
#058321:00000013
#059321:23
#066321:0000132300000000
#0663b1:0000000000001323
#067321:0000132300000000
#0693b1:1323000000000000
#069321:0000132300000000
#069361:0000000013230000
#069371:0000000000001323
#073321:12
#073371:00000022
#074381:12
#0743c1:0052
#075381:22
#075360:12
#075320:0052
#076360:22
#080320:0013
#080360:0000000000230000
#0803b0:00000013
#080370:0000000000000023
#081370:13
#0813b0:00230000
#081361:00130000
#081321:0023
#0823b1:0013
#082371:0000000000230000
#082321:00000013
#082361:0000000000000023
#083361:13
#083321:00230000
#083370:00130000
#0833b0:0023
#085320:13
#085350:0023000000000000
#085380:00130000
#0853b0:0000002300000000
#0853b0:0013
#085380:0000000000230000
#085350:00000013
#085320:0000000000000023
#088320:14
#088360:0024000000000000
#0883a0:00140000
#088360:0000002400000000
#088320:0014
#088360:0000000000240000
#0883a0:00000014
#088360:0000000000000024
#089360:14
#089320:0024000000000000
#089360:00140000
#0893a0:0000002400000000
#089360:0014
#089320:0000000000240000
#092320:00130000
#0943b0:0053000000000000
#096380:23
#0923b1:00130000
#094321:0053000000000000
#096351:23
