This file was generated by Ched 2.7.0.0.
#TITLE ""
#ARTIST ""
#DESIGNER ""
#DIFFICULTY 0
#PLAYLEVEL
#SONGID ""
#WAVE ""
#WAVEOFFSET 0
#JACKET ""
#REQUEST "ticks_per_beat 480"
#00002: 4
#BPM01: 190
#00008: 01
#TIL00: ""
#HISPEED 00
#MEASUREHS 00
#00314:00000014
#0101a:1414
#01014:00140000
#01010:41
#01112:1414
#01118:00140000
#0121a:1414
#01214:00140000
#01312:1414
#01318:00140000
#0141a:14
#01414:14
#01412:0014
#01418:0014
#02012:1414
#02018:00140014
#02010:41
#02112:1414
#02118:00140000
#0221a:1414
#02214:00140014
#0231a:14
#02314:00140000
#02612:0014
#02618:00000014
#02714:14
#0271a:00140000
#02712:0014
#02718:00000014
#0301a:0014
#03014:00000014
#03118:14
#03112:00140000
#0311a:0014
#03114:00000014
#0341a:14
#04012:14
#0401a:0014
#04114:1414
#04118:00140014
#04214:14
#04212:0000343400000000
#04318:0014
#04314:00000014
#0481a:14
#04812:0014
#04918:1414
#04914:00140014
#05018:14
#0501a:0000343400003434
#05519:0014
#05513:0014
#05814:00140014
#05818:0014
#05810:41
#0591a:1414
#05912:00140000
#06014:1414
#06018:00140014
#06112:1414
#0611a:00140014
#07014:14
#07318:14
#07414:14
#0751a:14
#0841a:14
#08412:0014
#08518:1414
#08514:00140014
#08618:14
#0861a:0000343400003434
#09112:0000000014000014
#0911a:0000000014000014
#0721f:11
#07612:24
#0761a:0024
#07714:2424
#07718:00240024
#07814:24
#07812:0000343400000000
#0801a:24
#0801f:21
#08212:24
#08110:41
#03210:41
#04410:41
#0235a:14
#02354:00140000
#0345a:54
#04254:54
#05058:64
#07054:54
#07854:54
#08658:64
#09152:0000000000000054
#0915a:0000000000000054
#06352:14
#000380:14
#003380:0024
#004380:14
#0043a0:0024
#005340:14
#005320:0024
#006380:14
#0063a0:0024
#007340:14
#007320:0000000034000034
#009320:0024
#0153a0:1424
#015341:1424
#016321:14
#016341:0024
#0173a1:14
#017381:0024
#018321:14
#018341:0024
#0193a1:14
#019381:0024
#0243a1:14
#024381:0034
#0253a1:34
#025381:0034
#0263a1:24
#028321:14
#028341:0034
#029321:34
#029341:0034
#030321:24
#032381:14
#0323a1:0024
#033341:14
#033321:0024
#0343a1:14
#035381:0024
#036321:14
#036341:0000000000003434
#037321:00000024
#0383a1:14
#038381:0000000000003434
#0393a1:00000024
#042341:14
#042321:0000343400000000
#043321:24
#0443a1:14
#044381:0000000000003434
#0453a1:00000024
#046321:14
#046341:0000000000003434
#047321:00000024
#050381:14
#0503a1:0000343400003434
#0513a1:0024
#052341:14
#052321:0034
#053341:34
#053321:0034
#054341:34
#055341:24
#055391:0000000000000014
#058391:24
#055330:0000000000000014
#058330:24
#062320:1434003434340034
#063320:24
#0643a0:14
#064380:0034
#0653a0:34
#065380:0024
#066320:14
#066340:0034
#067320:34
#067340:0024
#068380:14
#0683a0:0034
#069380:34
#0693a0:0024
#070340:14
#072320:24
#078340:14
#078320:0000343400000000
#079320:0024
#0803a0:14
#080380:0000000000003434
#0813a0:00000024
#082320:14
#082340:0000000000003434
#083320:00000024
#086380:14
#0863a0:0000343400003434
#0873a0:0024
#088320:14
#089340:34
#090320:34
#091340:24
#088381:14
#0893a1:34
#090381:34
#0913a1:24
#091321:0000000000000014
#096341:24
#0913a0:0000000000000014
#096380:24
