This file was generated by Ched 2.6.4.0.
#TITLE ""
#ARTIST ""
#DESIGNER ""
#DIFFICULTY 0
#PLAYLEVEL
#SONGID ""
#WAVE ""
#WAVEOFFSET 0
#JACKET ""
#REQUEST "ticks_per_beat 480"
#00002: 4
#BPM01: 80
#00008: 01
#TIL00: ""
#HISPEED 00
#MEASUREHS 00
#00814:0000000000000014
#00818:0000001400000000
#00810:0000004100000000
#00918:0000001400000000
#0121a:0000001400000000
#01214:0000000000000014
#01210:0000004100000000
#0131a:0000001400000000
#01314:0000000000000014
#01418:0000001400000000
#01412:0000000000000014
#01518:0000001400000000
#01018:0000000000000014
#01014:0000001400000000
#01114:0000001400000000
#01612:0000001400000000
#01618:0000000000000014
#01610:0000004100000000
#01712:0000001400000000
#01718:0000000000000014
#01814:0000001400000000
#0181a:0000000000000014
#01914:0000001400000000
#02818:0000002600000016
#0281f:0000002100000000
#03012:0000000000000016
#03018:0000001600000000
#03818:0000001600000000
#0391a:0000001400000000
#02912:0000001600000016
#02910:0000004100000000
#03212:0000002600000016
#03418:0000000000000016
#03412:0000001600000000
#03318:0000001600000016
#03310:0000004100000000
#0241f:0011000000000000
#02010:0000004100000000
#03858:0000005600000000
#0395a:0000002400000000
#0013a0:14
#0023a0:24
#003320:14
#004320:24
#005380:14
#006380:24
#007340:14
#008340:24
#0203a0:0000001400000000
#020390:0000000000000034
#021380:0000002400000000
#022320:0000001400000000
#022330:0000000000000034
#023340:0000002400000000
#024380:0000001400000000
#024390:0000000000000034
#0253a0:0000002400000000
#026340:0000001400000000
#026330:0000000000000034
#027320:0000002400000000
#031380:0000001600000026
#035340:0000001400000024
#036380:0000001400000024
#037320:0000001400000024
#038380:0000001600000000
#0393a0:0000005400000000
#039380:00000026
