This file was generated by Ched 2.6.4.0.
#TITLE ""
#ARTIST ""
#DESIGNER ""
#DIFFICULTY 0
#PLAYLEVEL
#SONGID ""
#WAVE ""
#WAVEOFFSET 0
#JACKET ""
#REQUEST "ticks_per_beat 480"
#00002: 4
#BPM01: 80
#00008: 01
#TIL00: ""
#HISPEED 00
#MEASUREHS 00
#00812:0000000000130013
#00818:000000000000000000000000000000000013000000000000
#00815:00000013
#0081b:0000000000000013
#00810:0000004100000000
#00918:0000000000130000
#0091b:0000001300001300
#00915:0000001300001300
#01012:1300000000000013
#0101b:0000000000130013
#01015:000000000000000000000000000000000013000000000000
#01018:00000013
#01218:000000000000000000000000130000000013000000000013
#01215:000000000000000000000013000000000000000000130000
#01212:0013000000001300
#0121b:000000000000000000130000000000000000000013000000
#01210:0000004100000000
#01315:001300001300000000000000
#01418:0000130013130000
#01412:000000130000000000000000000013000000000000000000
#01415:000000001300000000130000
#0141b:0013000000000000
#0141a:000000000024
#01416:000000000000000000000000000000000000000000000024
#0151b:001300
#01515:000000000000000000130000000000000013000000130000
#01518:000000000000000000000013000000000000130000000000
#01512:002400000000000000000000
#0211b:0013001300000000
#02115:0013001300000000
#02112:00130013
#02118:00130013
#0211a:0013
#02119:0000000000130000
#02114:0013
#02113:0000000000130000
#01612:130000001300001300000000
#01618:000000130000000000000000130000000000000013000000
#0161b:0000001300130000
#01615:000000000000000000000013000000000000130000130000
#01610:0000004100000000
#01815:000000000000000000000013000013000000000000000000
#0181b:000000130000000013000000000000000000000000000000
#01812:000000130000000000000000000000000000000013000000
#01918:000000000000000013000000000000000013000000000000
#01912:000000000000000000000000000000000000000000000013000000000000000000000000130000000000000000000000
#01915:000013000000000000130000000000130000000000000000
#0191b:000000000000001300000000
#01916:00000000000000000000000000000013
#01712:001300000000000000000000
#0171b:000000000013000000000000000000000000000000000000
#01718:000000000000001300000000
#01715:000000000000000000000000000000000013000000000000
#02815:00000000001300000000000013000000
#02818:0013
#0281b:00000000000023000000000000130000
#0281f:0000002100000000
#03518:0000000000130000
#03515:00000013
#03512:0000001300000013
#03516:0013
#0351b:0000132300000013
#02912:13
#0291b:0013001300000000
#02918:00130000
#0291a:0013
#02914:0013
#02919:0000000000130000
#02913:0000000000130000
#02910:0000004100000000
#03112:0000000000000000130000000000000013000000000000000000000000130000
#03115:00000000001300000000000013130000
#0311b:0000000013000000000000000000000000000000001300000000000000000000
#03118:00000013000000000013000000000000
#03218:13000000001300000000000013000000
#03215:0013
#03212:00000000000023000000000000130000
#0331b:1313
#03312:0013001300130000
#03315:00131300
#03318:0000000000130000
#03310:0000004100000000
#0341b:00000013000013000000230000000000
#03418:0013000000000000
#03415:0000130000230000
#03412:00000000001300000000000000000000
#03018:00130000130000000000000000000000
#03012:00000013000013000000000000000000
#03013:0013
#03019:0013
#0301a:0000000000130000
#03014:0000000000130000
#03015:0013000000000000
#0301b:00000000001300000000000000000000
#03615:0000000000130000
#03618:00000013
#0361b:0000001300000013
#03617:1313
#03616:0013000000000000
#03612:0000130000000013
#0371b:0000130000130013
#03716:13000013
#03717:0013000000000000
#03712:0000001300000000
#03919:000000000013000000000000000000000000000000000000000000000000000000000000000000000000000000000000
#03916:0000001400000000
#0221b:13000000130000001300001300000000
#02215:0013001300130000
#02218:0000000000130000
#02212:00000000000000000000001300000000
#02313:0013
#02315:00000013
#02314:0000000000130000
#0231b:00130013
#0231a:0000000000130000
#02312:0013001300000000
#02319:0013
#02318:13
#0251b:00130000
#02518:0000001300000000
#02515:00130000
#02512:0000001300002400
#0251a:0000000000240000
#02516:00000000000000000000002400000000
#02615:00000000001300001300000013000000
#02612:0013000000130000
#02618:0000000000000013
#0261b:0013000000000000
#0271b:1313001300130013
#02712:0013001300130013
#02715:00130013
#02718:00130013
#02719:0013
#02714:0013
#0061c:12
#00618:0012
#0111b:0013000000000000
#0201b:0013000000000023
#02012:0000002300130000
#02018:0000002300000000
#02015:0000000000000023
#02010:0000004100000000
#02415:0013000000001300
#02412:0000130000130000
#0241b:0013000000001300
#02418:0000130000130000
#0241f:0011000000000000
#0381b:0000000000000013
#01252:0023000000000000
#01952:000000000000000000000000000000000000000000000023000000000000000000000000530000000000000000000000
#01956:00000000000000000000000000000023
#01955:0000006300000000
#03959:000000000063000000000000000000000000000000000000000000000000000000000000000000000000000000000000
#03956:0000002400000000
#0065c:62
#00658:0022
#0085b:0000000000000063
#0095b:00000063
#00955:0000006300000000
#00958:0013000000000000
#01052:0000000000000053
#0115b:0063000000000000
#01155:0013000000000000
#01455:006300
#01458:0000000000530000
#01555:0000000000000063
#01652:23
#01658:0053000000000000
#0165b:0000000000630000
#01655:0000000000000063
#0185b:006300
#01855:000000000000006300000000
#01852:000000000053
#0205b:0063000000000013
#02052:0000001300530000
#02058:0000001300000000
#02055:0000000000000013
#0225b:63000000630000000000002300000000
#02255:0063006300630000
#02258:0000000000530000
#02252:00000000000000000000002300000000
#02358:53
#02352:0053000000000000
#0235b:00630000
#02455:0063004300002300
#02452:0000230000530033
#0245b:0063004300002300
#02458:0000230000530033
#02755:00630023
#02758:00530023
#0275b:0000006300630063
#02759:0023
#02752:0000005300530053
#02754:0023
#0285b:00000000000013000000000000630000
#02858:0013000000000000
#02855:0013000000000000
#03055:00006300000000000000000000130000
#03052:00000023000000000000000000000000
#03058:00530000
#0305b:00000000002300000000000000130000
#0315b:0000000063000000000000000000000000000000002300000000000000000000
#03158:00000023000000000053000000000000
#03152:0000000000000000530000000000000000000000000000000000000000230000
#03155:00000000002300000000000000630000
#03252:00000013000013000000000000530000
#0325b:00000013000000000000000000000000
#03458:0053000000000000
#0345b:00000023000000000000000000000000
#03455:00630000
#03452:00000000002300000000000000000000
#03552:0000005300000000
#03556:0023
#0355b:0000130000000063
#03555:00130000
#03657:2323
#0365b:0000006300000000
#03656:0063000000000000
#03652:0000230000000053
#03756:23
#03757:0053000000000000
#0375b:0000230000000063
#03752:0000005300000000
#0385b:0000000000000023
#0175b:000000000013
#01757:001200
#02958:00000000000000000000000000130000
#02952:00000000000000000000000000130000
#03355:0000000000000013
#0335b:0000000000000013
#01352:000000000013
#0013c0:12
#001380:0032
#0023c0:22
#002321:12
#002361:0032
#003321:22
#0033c0:12
#003380:0032
#0043c0:22
#004321:12
#004361:00000022
#004380:00000012
#005380:32
#0053c0:0022
#005361:0012
#006321:22
#0063c0:12
#006380:0052
#0073c0:22
#007321:12
#007361:0022
#0073c0:0012
#008380:22
#008321:1600002200000000
#008380:0000001300230000
#0083b0:0000000000000013
#009380:0023000000000000
#009351:0013230000000000
#009351:0000001300000000
#009321:0000000000230000
#0093b1:00000013
#010381:23
#010351:0000001300230000
#010321:0000000000000013
#011351:0023000000000000
#0113b0:0013000000000000
#011380:0000002300000000
#011321:0000001323000000
#011380:0000000013230000
#011351:0000000000132300
#0113b0:0000000000001323
#011321:0000000000000013
#012321:0053002600000000
#012321:000000000000000000000000000013000023000000000000
#013381:132300000000000000000000
#0133b1:0000001323000000
#013350:0000000013230000
#013381:0000000000132300
#013320:000000000000000000132300
#014350:001300
#014320:0023
#014380:0000000000130000
#0143b0:00000023
#015320:0013
#015350:000000000000002300000000
#0153b1:000000000000001300000000
#015381:000000000000000000000000000000000023000000000000
#015351:0000000000000013
#016321:53
#016351:0023000000000000
#016380:0013000000000000
#0163b0:002300
#0163b0:0000000000130000
#016380:00000023
#016350:0000000000000013
#017320:23
#017381:132300000000000000000000
#017371:000000122200000000000000
#017321:000000000000132300000000
#0173b1:000000000000000000132300
#018351:000000132300000000000000
#0183b0:001300
#018380:000000000000000000000023000000000000000000000000
#018380:000000000000132300000000
#018351:000000000000001300000000
#018321:00000023
#0183b0:000000000000000000132300
#018321:000000000013
#019351:23
#019380:132300000000000000000000
#019350:000000000000000000130000000023000000000000000000
#019320:000000000000000000000000000000000000000000000053000000000000000000000000000000000000000000000000
#019320:00000013
#019360:00000000000000000000000000000053
#020320:0023000000000000
#0203b1:0013000000000000
#020381:0000002300000000
#020321:0000000000130000
#020351:0000000000000023
#0223b1:13
#022381:0023000000000000
#022350:0013000000000000
#022320:00230000
#0223b1:00130000
#022381:0000002300000000
#022350:0000001300000000
#022320:0023
#022350:0000000000132300
#022320:00000000000000000000005300000000
#022381:0000000000132300
#0223b1:00000000000000000000005300000000
#023381:13
#0233b1:0023000000000000
#023320:0013000000000000
#023350:00230000
#0233b1:00130000
#023381:0000002300000000
#0243b1:0013002300000000
#024381:00530000
#024350:0013002300000000
#024320:00530000
#024380:0000000000130023
#0243b0:00000053
#024321:0000000000130023
#024351:00000053
#0263b1:0000001323000000
#026381:0000000000132300
#026351:0000000000000013
#027351:23
#027381:00130053
#0273b1:0000005300530033
#027391:0053
#028381:0023000000000000
#027350:00130053
#027320:0000005300530033
#027340:0053
#028350:0023000000000000
#028320:0000001300000000
#028350:0023
#028380:0000000000130000
#0283b0:00000023
#0283b0:00000000000000000000000000130000
#029380:23
#029350:0013002300000000
#029320:00330000
#029380:00000000000000000000000013230000
#029321:00000000000000000000000013230000
#030351:0013230000000000
#030321:00000053000000000000000000000000
#030380:0000132300000000
#0303b0:00000000005300000000000000000000
#030350:00000000000000000000000013230000
#0303b1:00000000000000000000000013230000
#0313b1:0013230000000000
#031381:00000053000000000000000000000000
#031320:0000132300000000
#031350:00000000005300000000000000000000
#0313b1:0000001300000000
#031381:0023
#031381:00000000000000000013000023000000
#0313b1:0000000000000000000000000000000000000000005300000000000000000000
#031351:00000000000000000000000000130000
#031321:0000000000000000000000000000000000000000000000000000000000530000
#032351:23
#0323b1:00001323000000000000000000000000
#032320:00001323000000000000000000000000
#0323b0:0000001300000000
#032380:0023
#032350:0000000000130000
#032320:00000023
#032320:00000000000000000000000000130000
#033350:23
#033380:0013002300000000
#0333b0:00330000
#033350:0000000000001323
#0333b1:0000000000001323
#034381:0013230000000000
#0343b1:00000053000000000000000000000000
#034350:0000132300000000
#034320:00000000005300000000000000000000
#0343b0:00000000000000000000000000132300
#034321:0000000000000013
#035321:23
#035380:1323000000000000
#035351:0013230000000000
#035321:0000001300230000
#035361:0053
#0353b1:0000000000000013
#036371:53
#0363b1:0023000000000000
#036360:0013002300000000
#036320:00530000
#0363b1:0000001300230000
#036371:0053
#036321:0000000000000013
#037361:53
#037321:0023000000000000
#037370:0013002300000000
#0373b0:00530000
#037321:0000001300000000
#037361:0000000000230000
#0373b1:0000000000000013
#038371:0023000000000000
#038320:0013002300000000
#038381:0000001300000000
#038391:0000000000000000000000000033000000000000000000000000000000000000
#0383a1:00000000000000330000000000000000
#0383b1:0000000000000000000000000000003300000000000000000000000053000000
#039391:000000000053000000000000000000000000000000000000000000000000000000000000000000000000000000000000
#039361:0000005400000000
#039321:0000002c
