This file was generated by Ched 2.6.4.0.
#TITLE ""
#ARTIST ""
#DESIGNER ""
#DIFFICULTY 0
#PLAYLEVEL
#SONGID ""
#WAVE ""
#WAVEOFFSET 0
#JACKET ""
#REQUEST "ticks_per_beat 480"
#00002: 4
#BPM01: 80
#00008: 01
#TIL00: ""
#HISPEED 00
#MEASUREHS 00
#00818:00000013
#00812:0000000000000013
#00810:0000004100000000
#01218:000000000000000013000000000000000000000000000013
#01215:0000001300000000
#01212:000000000000000000000000330033130033330000000000
#01213:000000000000000000000033000000000000000000000000
#01214:000000000033
#01210:0000004100000000
#0211b:0013000000000000
#02119:00130000
#02117:0000001300000000
#02116:0013
#02114:0000000000130000
#02112:00000013
#03518:00000013
#03512:0000001300000013
#03516:0013
#02912:0013000000000000
#02915:00000000130000000000130000130000
#02918:0000001300001300
#0291b:0013
#02910:0000004100000000
#02312:1313
#02318:0000000000130000
#0231b:00130000
#02315:00000013
#02518:00130000
#02515:0000001300000000
#02512:0000000000240000
#0251a:00000000000000000000002400000000
#02516:00000024
#02615:00000000001300000000000000000000
#00915:00000013
#0091b:0000001300000000
#02415:0013000000000000
#0241b:0013000000000000
#02418:0000000000130000
#02412:0000000000130000
#0241f:0011000000000000
#0281b:00000000000000001300000000130000
#02818:00000000001300000000000000000000
#02815:0000002300000000
#0281f:0000002100000000
#03712:0000001300000000
#0371b:0000000000000013
#03717:13
#01015:00000013
#0101b:0000000000000013
#01118:0000000000130000
#03018:00130000000000000000000013000000
#0301b:0013
#03012:0000000000130000
#03015:00000000000000000000000000130000
#03115:00000013
#03118:00000000000000000013000000130000
#03215:00001300001300000000000000000000
#0321b:00000013000000000000000000000000
#03212:00000000000000001300000000130000
#03218:0000002300000000
#0331b:0013000000000000
#03318:0000130000130013
#03315:0000001300001300
#03312:0013
#03310:0000004100000000
#0341b:0013000000230000
#03415:0013000000230000
#03418:00000000000000000000000000130000
#03616:13
#03615:00000013
#0361b:0000001300000013
#03617:0013
#03812:0000001300000000
#03813:0000000000000000000000000033000000000000000000000000000000000000
#03814:00000000000000330000000000000000
#03815:0000000000000000000000000000003300000000000000000000000000000000
#01318:000000001300000000130000
#01315:000000000013
#01418:000000130000001300002400
#01412:001300
#01415:0000000000130000
#01414:000000000000000000000000000000000000000000000024
#01512:001300
#01518:000024000000000000130000000000000000130000000000
#01515:000000000000000000000013000000000013000000000000
#0151b:00000000000000000000000000000013
#01615:001300
#01618:0000001300000000
#0161b:000000000000000000000000330033130000330000000000
#0161a:000000000000000000000033000000000000000000000000
#01619:000000000033
#01610:0000004100000000
#01815:00130000
#0181b:001300
#01818:000000000000000000000033330000000000130000000000
#01812:000000000013
#01918:000000000000000013000000000013000013000000000000
#01915:3300000000131300
#01912:0000000000000013
#01718:000000000013000000000000000000000000000000000000
#01715:000000000000000000000000000000000013000000000000
#02012:0000000000130000
#0201b:0013000000000000
#02018:0000002300000000
#02015:0000000000000023
#02010:0000004100000000
#0271b:0000001300000013
#02712:0000001300000013
#02715:0000000000130000
#02718:0000000000130000
#00612:13
#00616:0013
#0221b:1313
#02215:0000000000130000
#02212:00130000
#02218:00000013
#00955:0013000000006300
#0095b:0000006300000000
#02352:53
#0235b:00630000
#02455:0063000000000013
#0245b:0063000000000013
#02458:0000001300530000
#02452:0000001300530000
#0285b:00000000000000000000000000630000
#02855:0013001300000000
#02858:0013000000000000
#03552:0000005300000053
#03556:0023
#03558:00130000
#03752:0000005300000000
#0375b:0000000000000063
#03757:23
#00852:0000000000000053
#0105b:0000000000000063
#02955:00000000000000000000000000130000
#03055:00000000000000000000000000130000
#03158:00000000000000000000000000530000
#0325b:00000013000000000000000000000000
#03252:00000000000000000000000000530000
#03258:0000001300000000
#03358:0000000000000013
#03656:23
#0365b:0000006300000063
#03657:0023
#03852:0000005300000000
#01452:005300
#01455:0000000000630000
#01355:000000000013
#0185b:006300
#01852:000000000053
#02052:0000000000530000
#0205b:0063000000000000
#02058:0000001300000000
#02055:0000000000000013
#0275b:0000006300000063
#02752:0000005300000053
#02755:0000000000630000
#02758:0000000000530000
#01658:0000005300000000
#0165b:0000000000230000
#01558:00000053
#0155b:00000000000000000000000000000023
#01255:0000006300000000
#01252:0000000000230000
#00652:53
#00656:0023
#01955:00000063
#01952:0000000000000023
#01158:0013000000000000
#0175b:000000000013
#0225b:63
#02252:00530000
#0013b0:13
#001380:0023
#002320:13
#002350:0023
#003380:13
#0033b0:0023
#004350:13
#004320:00000023
#0053b0:13
#005380:0023
#006320:13
#006360:0053
#007320:23
#007380:0013
#0083b0:23
#008350:0000001300230000
#008320:0000000000000013
#009350:0023000000000000
#0093b0:0000001300000000
#009380:0000000000230000
#009350:00000013
#010320:23
#010380:0000001300230000
#0103b0:0000000000000013
#011380:0023000000000000
#011350:0000001323000000
#011320:0000000000001323
#012350:0000001300000023
#012330:000000000000000000000033000000000000000000000000
#012320:000000000000000000000000330033530033330000000000
#012340:000000000033
#013350:132300000000000000000000
#013350:0000001300230000
#013320:0033
#014320:001300
#014350:0023
#014350:0000000000130000
#014320:00000023
#0153b0:000000000000132300000000
#015380:00000013
#0153b0:00000000000000000000000000000053
#016380:0023000000000000
#016380:0000001300000023
#0163a0:000000000000000000000033000000000000000000000000
#0163b0:000000000000000000000000330033330000330000000000
#016390:000000000033
#017320:132300000000000000000000
#017350:000000132300000000000000
#017380:000000000000132300000000
#0173b0:000000000000000000132300
#0183b0:001300
#018380:000000000000000000000033330023000000000000000000
#018320:000000000013
#019350:332300000000000000000000
#019320:0000001323000000
#019350:00000013
#019320:0000000000000053
#020350:23
#0203b0:0013000000000000
#020380:0000002300000000
#020320:0000000000130000
#020350:0000000000000023
#0223b0:13
#022380:0023000000000000
#022320:00130000
#022350:0000002300000000
#023320:13
#023350:0023000000000000
#0233b0:00130000
#023380:0000002300000000
#0243b0:0013000000000000
#024380:0000002300000000
#024351:0013000000000000
#024321:0000002300000000
#024321:0000000000130000
#024351:0000000000000023
#024380:0000000000130000
#0243b0:0000000000000023
#0263b0:0000001323000000
#026380:0000000000132300
#026350:0000000000000013
#027350:23
#027320:0013230000000000
#0273b0:0000001300000033
#027380:0000000000530000
#028380:0023000000000000
#027321:0000001300000033
#027351:0000000000530000
#028351:0023000000000000
#028321:0000000000130000
#028351:00000023
#0283b1:00000000000000000000000000130000
#029381:23
#030351:0013002300000000
#030321:00330000
#0313b1:0013000000000000
#031381:00230000
#031321:0000001300000000
#031351:0023
#031381:00000000000000000000000000130000
#0323b1:23
#0323b1:0000000000130000
#032381:00000023
#032321:00000000000000000000000000130000
#033351:23
#0343b1:00130000
#034381:0000002300000000
#034350:00130000
#034320:0000002300000000
#034350:0000000000000013
#035350:23
#035380:0013230000000000
#035320:0000001300230000
#035360:0053
#035320:0000000000000013
#036360:53
#036320:0023000000000000
#0363b0:0000001300230000
#036370:0053
#0363b0:0000000000000013
#037370:53
#0373b0:0023000000000000
#037320:0000001300000000
#037360:0000000000230000
#0373b0:0000000000000013
#038370:0023000000000000
#038320:0000001300000000
#038330:0000000000000000000000000033000000000000000000000000000000000000
#038340:00000000000000330000000000000000
#038350:0000000000000000000000000000003300000000000000000000000000000000
#039360:0000005400000000
#039320:0000002c
