This file was generated by Ched 2.6.4.0.
#TITLE ""
#ARTIST ""
#DESIGNER ""
#DIFFICULTY 0
#PLAYLEVEL
#SONGID ""
#WAVE ""
#WAVEOFFSET 0
#JACKET ""
#REQUEST "ticks_per_beat 480"
#00002: 4
#BPM01: 80
#00008: 01
#TIL00: ""
#HISPEED 00
#MEASUREHS 00
#00812:0000160000130000
#00815:130000000000000000000000000000000013130000130000
#0081b:0000000000130013
#00818:130000160000130000001300
#00810:0000004100000000
#00917:0000001313000000
#0091b:000000000000000000130000000013130000000000130000
#00912:130000000000000000000000130000000000130000000013
#00916:1300000000001313
#01012:1300160000130013
#0101b:0000000000130000
#01018:000000000000160000000000000000000013130000130000
#01015:000000130013
#01216:000000000000000000000013130000000000000000000000
#01215:0013000000000000
#01214:000000000000000000000000000013130000000000000000
#01212:000000000000000000000000000000000013000000000000
#01217:000000000000000000000000000000000000130013130000
#01219:000000000000000000000000000000000000000000000013
#0121b:001300
#01210:0000004100000000
#01319:13
#0131b:000013130000000000000013000000000000130000000000
#01316:0013000000000000
#01315:000000000000000000130000000013000000000000130013
#01312:000000000000000013000000000000130000000000000000
#01318:000000000000000000000000130000000013000013000000
#01412:0013130000130000
#01417:000000000000000000000000000000000000000000130000000000001300130000000000130000000000000000000000
#0141b:0013001300000000
#01418:131300000000000000000000
#01416:000000000000000000000000000000001300130000000000000000000000000000130000000000002300130000000000
#01415:000000000013000000000000000000000000000000000000000000000000000000000000000000000000000000000000
#0141a:000000000024
#01414:000000000000000000000000000000000000000000000024
#01419:000000000000000000000000000000000000000000000023
#0151b:000000000000000013130000000013000000000000130000
#01516:000024000000000000130000000000000000000000000000
#01517:000000000000000000000013000000000000130000000000
#01512:000023130000000000000013000000000013130000130000
#01518:000000000000000000000000000000000000000000000013
#01519:13
#01917:000000000000000000130000000000001300130000000000000000000000000000001300130000000000000000000000
#01916:000000001300130000000000130000000000000000130000000000001300130000000000000000000000000000000000
#01912:130000000000000013130000000000000000000000000000
#0191b:00001300000000130000130000000000
#0171c:000000000012000000000000000000000000000000000000
#01712:000013130012000000000000130000000000130000000000
#01714:13
#01717:0013000000000000
#01718:000000000000000000000000000013000000000000130013
#0171b:0000000013130000
#01715:000000000000000000000000000000000013000013000000
#02815:00000000001626000000000000000000
#02816:14000000000000000013000000130000
#02812:00001313
#0281b:00000000000013000000130000131300
#02817:00000000000000130000000000000000
#02818:00000000000000000000000000000013
#0281f:0000002100000000
#03516:00000014000013001300000013001300
#0351b:13001313
#03512:0014002300130013
#0351a:00140000
#03517:00130000000000000000000000000000
#0291b:00001300000000000000000013000013
#02917:00000000000013000000130000130000
#02915:13
#02914:00130000
#02916:00000000000000001300000013000013
#02912:00000000000000000000000000130000
#02910:0000004100000000
#03017:00130013000000000000000000000000
#03016:0013001300000000
#03012:00130013000000001300000000000000
#03018:00000000000000000000000000000013
#0301b:0013001300130000
#0371b:0013001300130013
#03712:1300131300001300
#03714:001300000000
#03717:000000000013000000000000130000000000130000000000
#03719:000000000000001300000000000000000000000000000000
#03716:001300
#02618:00000000001300130000000000000000
#0261b:0000001300000000
#0261a:0000000000130000
#02617:00000000000000000000001300000000
#02619:0000000000000013
#02616:00000000000000000000000000000013
#0201b:00001300000023000013000013000000
#02014:0013
#02012:0000001300000000000000000000000000000000130000000000000023000000
#02017:0000000000131313
#02019:00000000000000001300000000130000
#02016:00130000
#02010:0000004100000000
#0111b:130000130000000000000000000000000000000000000013
#01117:13
#01112:0000130000130000
#01116:00130000
#01615:13
#01617:000000000000000000000013130000000000000000000000
#01619:000000000000000000000000000013130000000000000000
#0161b:000000000000000000000000000000000013000000000000
#01616:000000000000000000000000000000000000130013130000
#01614:000000000000000000000000000000000000000000000013
#01612:001300
#01610:0000004100000000
#02114:13000000130000001300000000130000
#02119:13131300
#02116:00001300001300130000000000001300
#0211b:00001300001300000000130000001300
#02112:00130000000013000013000013000000
#02117:00000013000000000013000013000000
#0221b:00131300130000000013130000130000
#02212:13000000001313001300000013000000
#02217:00000013
#02216:00000000000000000000000000130000
#02312:00131300130000000013130000130000
#0231b:13000000001313001300000013000000
#02316:00000013
#02317:00000000000000000000000000130000
#02419:13000000000000000000000000130000
#02414:13000000001300000000000000000000
#02417:0013000000001300
#0241b:0000130013130000
#02412:0013000000001300
#02416:00000000130000000013130000000000
#0241f:0011000000000000
#02512:1313131300002313
#02517:000000000000000000000000000000000000000000000000000000000000000000000000000000000000000000000000000000000000000000000000000000000000000000000000000000000000000000000000000000000000000000000000000000000000000000000000000000000000000000000000130000000000000000000000000000000000000000000000000000000000000000000000000000000000000000000000000000000000000000000000000000000000000000000000000000000000000000000000000000000000000000000000000000000000000000000000000000000000000000000000130000000000000000000000000000000000000000000000000000000000000000000000000000000000000000000000000000000000000000000000000000000000000000000000000000000000000000000000000000000000000000000000000000000000000000000000000000000000000000000000000000000000000000000000000000000000000000000000000000000000000000000000000000000000000000000000000000000000000000000000000000000000000000000000000000000000000000000000000000000000000000000000000000000000000000000000000000000000000000000000000000000000000000000000000000000000000000000000000000000000000000000000000000000000000000000000000000000000000000000000000000000000000000000000000000000000000000000000000000000000000000000000000000000000000000000000000000000000000000000000000000000000000000000000000000000000000000000000000000000000000000000000000000000000000000000000000000000000000000000000000000000000000000000000000000000000000000000000000000000000000000000000000000000000000000000000000000000000000000000000000000000000000000000000000000000000000000000000000000000000000000000000000000000000000000000000000000000000000000000000000000000000000000000000000000000000000000000000000000000000000000000000000000000000000000000000000000000000000000000000001300000000000000000000000000000000000000000000000000000000000000000000000000000000000000000000000000000000000000000000000000000000000000000000000000000000000000000000000000000000000000000000000000000000000000000000000000000000000000000000000000000000000000000000000000000000000000000000000000000000000000000000000000000000000000000000000000000000000000000000000000000000000000000000000000000000000000000000000000000000000000000000000000000000000000000000000000000000000000000000000000000000000000000000000000000000000000000000000000000000000000000000000000000000000000000000000000000000000000000000000000000000000000000000000000000000000000000000000000000000000000000000000000000000000000000000000000000000000000000000000000000000000000000000000000000000000000000000000000000000000000000000000000000000000000000000000000000000000000000000000000000000000000000000000000000000000000000000000000000000000000000000000000000000000000000000000000000000000000000000000000000000000000000000000000000000000000000000000000000000000000000000000000000000000000000000000000000000000000000000000000000000000000000000000000000000000000000000000000000000000000000000000000000000000000000000000000000000000000000000000000000000000000000000000000000000000000000000000000000000000000000000000000000000000000000000000000000000000000000000000000000000000000000000000000000000000000000000000000000000000000000000000000000000000000000000000000000000000000000000000000000000000000000000000000000000000000000000000000000000000000000000000000000000000000000000000000000000000000000000000000000000000000000000000000000000000000000000000000000000000000000000000000000000000000000000000000000000000000000000000000000000000000000000000000000000000000000000000000000000000000000000000000000000000000000000000000000000000000000000000000000000000000000000000000000000000000000000000000000000000000000000000000000000000000000000000000000000000000000000000000000000000000000000000000000000000000000000000000000000000000000000000000000000000000000000000000000000000000000000000000000000000000000000000000000000000000000000000000000000000000000000000000000000000000000000000000000000000000000000
#0251b:0000131300000013
#02519:00000000000000000000002300000013
#02514:00000000000000000000002400000013
#02516:00000000000000130000230024000000
#0251a:0000000000240000
#0181b:000000130000130000000013130000000000000000000000
#01815:131300000000000000000000
#01817:000000000000000013130000000013130000000000000000
#01812:000000130000000000000000000000130000000000000013
#01816:000000000000000000000000000000000000000000000000000000000000000000130000000000001300130000000000
#0361b:1300131300130013
#03616:0013000000000000
#03612:0013000013001300
#03617:0000001313001313
#0381b:0000001300000000
#03815:0000000000000000000000000013000000000000000000000000000000000000
#03818:00000000000000130000000000000000
#03812:0000000013000000000000000000001300000000000000000000000012000000
#03816:13
#03914:00000000001200000000000000000000000000000000000000000000000000000000000000000000000000000000000000000000000000000000000000000000
#03917:0000001200000000
#00217:0012
#00412:12
#00417:0000001200000000
#00514:0000001200000000140000000000000000000000000000000000000000000000
#00512:14
#00515:0000000000000012000000001400000000000000000000000000000000000000
#00513:0014000000000000
#00516:0000000000000000000000120000000000000000000000000000000000000000
#0051a:0000000000000000000000000000000014000012000000000000000000000000
#00519:0000000000000000000000000000000000000000140000120000000000000000
#00518:0000000000000000000000000000000000000000000000001400001200000000
#00517:0000000000000014
#00614:0000001200000000140000000000000000000000140000120000000000000000
#00612:1400000000000014
#00615:0000000000000012000000001400000014000012000000000000000000000000
#00613:0000000014000000000000000000000000000000000000001400001200000000
#00616:0000000000000000000000120000001200000000000000000000000000000000
#0071a:1400001200000000000000000000000000000000000000000000000000000000
#00719:0000000014000012000000000000000000000000000000000000000000000000
#00718:0000000000000000140000120000000000000000000000000000000000000000
#00717:0000001400000000
#00712:0012
#02718:0013001615000000
#02715:000000000000000000000000000000000000000000000000000000000000000000000000000000000000000000000000000000000000000000000000000000000000000000000000000000000000000000000000000000000000000000000000000000000000000000000000000000000000000000000000000000000000000000000000000000000000000000000000000000000000000000000000000000000000000000000000000000000000000000000000000000000000000000000000000000000000000000000000000000000000000000000000000000000000000000000000000000000000000000000000000000000000000000000000000000000000000000000000000000000000000000000000000000000000000000000000000000000000000000000000000000000000000000000000000000000000000000000000000000000000000000000000000000000000000000000000000000000000000000000000130000000000000000000000000000000000000000000000000000000000000000000000000000000000000000000000000000000000000000000000000000000000000000000000000000000000000000000000000000000000000000000000000000000000000000000000000000000000000000000000000000000000000000000000000000000000000000000000000000000000000000000000000000000000000000000000000000000000000000000000000000000000000000000000000000000000000000000000000000000000000000000000000000000000000000000000000000000000000000000000000000000000000000000000000000000000000000000000000000000000000000000000000000000000000000000000000000000000000000000000000000000000000000000000000000000000000000000000000000000000000000000000000000000000000000000000000000000000000000000000000000000000000000000000000000000000000000000000000000000000000000000000000000000000000000000000000000000000000000000000000000000000000000000000000000000000000000000000000000000000000000000000000000000000000000000000000000000000000000000000001400000000000000000000000000000000000000000000000000000000000000000000000000000000000000000000000000000000000000000000000000000000000000000000000000000000000000000000000000000000000000000000000000000000000000000000000000000000000000000000000000000000000000000000000000000000000000000000000000000000000000000000000000000000000000000000000000000000000000000000000000000000000000000000000000000000000000000000000000000000000000000000000000000000000000000000000000000000000000000000000000000000000000000000000000000000000000000000000000000000000000000000000000000000000000000000000000000000000000000000000000000000000000000000000000000000000000000000000000000000000000000000000000000000000000000000000000000000000000000000000000000000000000000000000000000000000000000000000000000000000000000000000000000000000000000000000000000000000000000000000000000000000000000000000000000000000000000000000000000000000000000000000000000000000000000000000000000000000000000000000000000000000000000000000000000000000000000000000000000000000000000000000000000000000000000000000000000000000000000000000000000000000000000000000000000000000000000000000000000000000000000000000000000000000000000000000000000000000000000000000000000000000000000000000000000000000000000000000000000000000000000000000000000000000000000000000000000000000000000000000000000000000000000000000000000000000000000000000000000000000000000000000000000000000000000000000000000000000000000000000000000000000000000000000000000000000000000000000000000000000000000000000000000000000000000000000000000000000000000000000000000000000000000000000000000000000000000000000000000000000000000000000000000000000000000000000000000000000000000000000000000000000000000000000000000000000000000000000000000000000000000000000000000000000000000000000000000000000000000000000000000000000000000000000000000000000000000000000000000000000000000000000000000000000000000000000000000000000000000000000000000000000000000000000000000000000000000000000000000000000000000000000000000000000000000000000000000000000000000000000000000000000000000000000000000000000000000000000000000000000000000000000000000000000000000000000000000000000000000000
#02719:0000000000140000
#0271a:0000000000001414
#02717:00000000000000140000000000000000
#02716:000000000000000000000000000000000000000000000000000000000000000000000000000000000000000000000000000000000000000000000000000000000000000000000000000000000000000000000000000000000000000000000000000000000000000000000000000000000000000000000000000000000000000000000000000000000000000000000000000000000000000000000000000000000000000000000000000000000000000000000000000000000000000000000000000000000000000000000000000000000000000000000000000000000000000000000000000000000000000000000000000000000000000000000000000000000000000000000000000000000000000000000000000000000000000000000000000000000000000000000000000000000000000000000000000000000000000000000000000000000000000000000000000000000000000000000000000000000000000000000000000000000000000000000000000000000000000000000000000000000000000000000000000000000000000000000000000000000000000000000000000000000000000000000000000000000000000000000000000000000000000000000000000000000000000000000000000000000000000000000000000000000000000000000000000000000000000000000000000000000000000000000000000000000000000000000000000000000000000000000000000000000000000000000000000000000000000000000000000000000000000000000000000000000000000000000000000000000000000000000000000000000000000000000000000000000000000000000000000000000000000000000000000000000000000000000000000000000000000000000000000000000000000000000000000000000000000000000000000000000000000000000000000000000000000000000000000000000000000000000000000000000000000000000000000000000000000000000000000000000000000000000000000000000000000000000000000000000000000000000000000000000000000000000000000000000000000000000000000000000000000000000000000000000000000000000000000000000000000000000000000000000000000000000000000000000000000000000000000000000000000000000000000000000000000000000000000000000000000000000000000000000000000000000000000000000000000000000000000000000000000000000000000000000000000000000000000000000000000000000000000000000000000000000000000000000000000000000000000000000000000000000000000000000000000000000000000000000000000000000000000000000000000000000000000000000000000000000000000000000000000000000000000000000000000000000000000000000000000000000014140000000000000000000000000000000000000000000000000000000000000000000000000000000000000000000000000000000000000000000000000000000000000000000000000000000000000000000000000000000000000000000000000000000000000000000000000000000000000000000000000000000000000000000000000000000000000000000000000000000000000000000000000000000000000000000000000000000000000000000000000000000000000000000000000000000000000000000000000000000000000000000000000000000000000000000000000000000000000000000000141400000000000000000000000000000000000000000000000000000000000000000000000000000000000000000000000000000000000000000000000000000000000000000000000000000000000000000000000000000000000000000000000000000000000000000000000000000000000000000000000000000000000000000000000000000000000000000000000000000000000000000000000000000000000000000000000000000000000000000000000000000000000000000000000000000000000000000000000000000000000000000000000000000000000000000000000000000000000000000000141400000000000000000000000000000000000000000000000000000000000000000000000000000000000000000000000000000000000000000000000000000000000000000000000000000000000000000000000000000000000000000000000000000000000000000000000000000000000000000000000000000000000000000000000000000000000000000000000000000000000000000000000000000000000000000000000000000000000000000000000000000000000000000000000000000000000000000000000000000000000000000000000000000000000000000000000000000000000000000000000000000000000000000000000000000000000000000000000000000000000000000000000000000000000000000000000000000000000000000000000000000000000000000000000000000000000000000000000000000000000000000000000000000000000000000000000000000000000000000014
#02712:0000001600001414
#02713:0000000015140000
#03115:13
#03117:00001300000000000013130000000000
#0311b:00000013000000001300000000000000
#03112:0013000000001313
#03116:00000013000013000000000000131300
#03217:13001300000000000013000000130000
#0321b:13000013000000001300000013000000
#03212:00001300000013000000130000131300
#03216:00000013000000130000000000000000
#03215:00000000001626000000000000000013
#03312:0013000000000013
#03316:0000001300130000
#03318:13
#03319:00130013
#03317:0013
#0331b:0000000000000013
#03310:0000004100000000
#0341b:13001300001300000000230000000000
#03412:13000013000013001300000000001300
#03417:0013000000000000
#03418:00130000
#03416:00000000000000001300230000000013
#01255:0023000000000000
#0085b:0000000000000063
#00858:23560000
#00852:0000661200000000
#00855:23
#0085c:0000001200000000
#00957:0000006300000000
#00952:0023
#00956:23000053
#0095b:0043000000000023
#0145b:0000006300000000
#01452:0000000000530000
#01457:00000000000000230000000000000000
#01456:00000000000000000000002300000000
#0205b:0063004300000000
#02052:0000002300000000000000000000000000000000530000000000000033000000
#02057:0000000000132300
#02056:00230000
#03056:00006300000000000000000000130000
#03052:00000023000000002300000000000000
#0305b:00006300000023000000000000130000
#03057:00000023000000000000000000000000
#03556:00000024000053000000000000000000
#0355b:6323
#03552:0054340000000023
#0355a:00440000
#03557:00230000000000000000000000000000
#03752:0000005300000000
#03757:0023
#0375b:0000000000000063
#01052:0000661200000053
#01058:00560000
#0105c:0000001200000000
#01157:23
#0115b:0063000000000000
#01156:00230000
#01152:0033000000000000
#02156:00001300000000230000000000000000
#0215b:00006300002300000000130000000000
#02159:00530000
#02157:00000023000000000000000000000000
#02152:00000000000053000023000000000000
#02154:0063
#0225b:00001300630000000000130000230000
#02252:23005353
#02257:00000053
#02256:00000000000000000000000000230000
#02352:00001300530000000000130000230000
#0235b:23006363
#02356:00000063
#02357:00000000000000000000000000230000
#02457:0053004300000000
#0245b:0000630000130000
#02452:0013000000005300
#02456:0000000000630033
#02552:0013005300000000
#0255b:0000006300000000
#02557:000000000000000000000000000000000000000000000000000000000000000000000000000000000000000000000000000000000000000000000000000000000000000000000000000000000000000000000000000000000000000000000000000000000000000000000000000000000000000000000000000000000000000000000000000000000000000000000000000000000000000000000000000000000000000000000000000000000000000000000000000000000000000000000000000000000000000000000000000000000000000000000000000000000000000000000000000000000000000000000000000000000000000000000000000000000000000000000000000000000000000000000000000000000000000000000000000000000000000000000000000000000000000000000000000000000000000000000000000000000000000000000000000000000000000000000000000000000000000000000000000000000000000000000000000000000000000000000000000000000000000000000000000000000000000000000000000000000000000000000000000000000000000000000000000000000000000000000000000000000000000000000000000000000000000000000000000000000000000000000000000000000000000000000000000000000000000000000000000000000000000000000000000000000000000000000000000000000000000000000000000000000000000000000000000000000000000000000000000000000000000000000000000000000000000000000000000000000000000000000000000000000000000000000000000000000000000000000000000000000000000000000000000000000000000000000000000000000000000000000000000000000000000000000000000000000000000000000000000000000000000000000000000000000000000000000000000000000000000000000000000000000000000000000000000000000000000000000000000000000000000000000000000000000000000000000000000000000000000000000000000000000000000000000000000000000000000000000000000000000000000000000000000000000000000000000000000000000000000000000000002300000000000000000000000000000000000000000000000000000000000000000000000000000000000000000000000000000000000000000000000000000000000000000000000000000000000000000000000000000000000000000000000000000000000000000000000000000000000000000000000000000000000000000000000000000000000000000000000000000000000000000000000000000000000000000000000000000000000000000000000000000000000000000000000000000000000000000000000000000000000000000000000000000000000000000000000000000000000000000000000000000000000000000000000000000000000000000000000000000000000000000000000000000000000000000000000000000000000000000000000000000000000000000000000000000000000000000000000000000000000000000000000000000000000000000000000000000000000000000000000000000000000000000000000000000000000000000000000000000000000000000000000000000000000000000000000000000000000000000000000000000000000000000000000000000000000000000000000000000000000000000000000000000000000000000000000000000000000000000000000000000000000000000000000000000000000000000000000000000000000000000000000000000000000000000000000000000000000000000000000000000000000000000000000000000000000000000000000000000000000000000000000000000000000000000000000000000000000000000000000000000000000000000000000000000000000000000000000000000000000000000000000000000000000000000000000000000000000000000000000000000000000000000000000000000000000000000000000000000000000000000000000000000000000000000000000000000000000000000000000000000000000000000000000000000000000000000000000000000000000000000000000000000000000000000000000000000000000000000000000000000000000000000000000000000000000000000000000000000000000000000000000000000000000000000000000000000000000000000000000000000000000000000000000000000000000000000000000000000000000000000000000000000000000000000000000000000000000000000000000000000000000000000000000000000000000000000000000000000000000000000000000000000000000000000000000000000000000000000000000000000000000000000000000000000000000000000000000000000000000000000000000000000000000000000000000000000000000000000000000000000000000000000000000000000000000000000000000000000000000000000000000000000000000000000000000000000000000000000000
#02556:00000000000000230000000000000000
#01358:000000000013
#01755:000000000013
#01752:001200
#0175c:001200
#03652:0053000023000000
#03657:0000006300000000
#0365b:0000000000000023
#03954:00000000005200000000000000000000000000000000000000000000000000000000000000000000000000000000000000000000000000000000000000000000
#03957:0000002200000000
#03852:0000000023000000000000000000006300000000000000000000000022000000
#03856:23
#00452:52
#00457:0000002200000000
#00554:0000002200000000540000000000000000000000000000000000000000000000
#00552:54
#00555:0000000000000022000000005400000000000000000000000000000000000000
#00553:0054000000000000
#00556:0000000000000000000000220000000000000000000000000000000000000000
#0055a:0000000000000000000000000000000064000022000000000000000000000000
#00559:0000000000000000000000000000000000000000640000220000000000000000
#00558:0000000000000000000000000000000000000000000000006400002200000000
#00557:0000000000000064
#00654:0000002200000000540000000000000000000000640000220000000000000000
#00652:5400000000000064
#00655:0000000000000022000000005400000064000022000000000000000000000000
#00653:0000000054000000000000000000000000000000000000006400002200000000
#00656:0000000000000000000000220000002200000000000000000000000000000000
#0075a:6400002200000000000000000000000000000000000000000000000000000000
#00759:0000000064000022000000000000000000000000000000000000000000000000
#00758:0000000000000000640000220000000000000000000000000000000000000000
#00757:0000006400000000
#00752:0052
#01852:0000000000530000
#01856:00000000000000000000002300000000
#0195b:00006300000000230000000000000000
#01957:00000023000053000000000000000000
#01952:0000005300000000
#01956:00000000000000230000000000000000
#0265b:0043006300000000
#02658:00000000000000230000000000000000
#0265a:0000000000630000
#02657:00000000000000000000002300000000
#02659:0000000000000063
#02656:00000000000000000000000000000023
#02652:0033000000000000
#02758:0063006665000000
#02755:000000000000000000000000000000000000000000000000000000000000000000000000000000000000000000000000000000000000000000000000000000000000000000000000000000000000000000000000000000000000000000000000000000000000000000000000000000000000000000000000000000000000000000000000000000000000000000000000000000000000000000000000000000000000000000000000000000000000000000000000000000000000000000000000000000000000000000000000000000000000000000000000000000000000000000000000000000000000000000000000000000000000000000000000000000000000000000000000000000000000000000000000000000000000000000000000000000000000000000000000000000000000000000000000000000000000000000000000000000000000000000000000000000000000000000000000000000000000000000000000230000000000000000000000000000000000000000000000000000000000000000000000000000000000000000000000000000000000000000000000000000000000000000000000000000000000000000000000000000000000000000000000000000000000000000000000000000000000000000000000000000000000000000000000000000000000000000000000000000000000000000000000000000000000000000000000000000000000000000000000000000000000000000000000000000000000000000000000000000000000000000000000000000000000000000000000000000000000000000000000000000000000000000000000000000000000000000000000000000000000000000000000000000000000000000000000000000000000000000000000000000000000000000000000000000000000000000000000000000000000000000000000000000000000000000000000000000000000000000000000000000000000000000000000000000000000000000000000000000000000000000000000000000000000000000000000000000000000000000000000000000000000000000000000000000000000000000000000000000000000000000000000000000000000000000000000000000000000000000000000002400000000000000000000000000000000000000000000000000000000000000000000000000000000000000000000000000000000000000000000000000000000000000000000000000000000000000000000000000000000000000000000000000000000000000000000000000000000000000000000000000000000000000000000000000000000000000000000000000000000000000000000000000000000000000000000000000000000000000000000000000000000000000000000000000000000000000000000000000000000000000000000000000000000000000000000000000000000000000000000000000000000000000000000000000000000000000000000000000000000000000000000000000000000000000000000000000000000000000000000000000000000000000000000000000000000000000000000000000000000000000000000000000000000000000000000000000000000000000000000000000000000000000000000000000000000000000000000000000000000000000000000000000000000000000000000000000000000000000000000000000000000000000000000000000000000000000000000000000000000000000000000000000000000000000000000000000000000000000000000000000000000000000000000000000000000000000000000000000000000000000000000000000000000000000000000000000000000000000000000000000000000000000000000000000000000000000000000000000000000000000000000000000000000000000000000000000000000000000000000000000000000000000000000000000000000000000000000000000000000000000000000000000000000000000000000000000000000000000000000000000000000000000000000000000000000000000000000000000000000000000000000000000000000000000000000000000000000000000000000000000000000000000000000000000000000000000000000000000000000000000000000000000000000000000000000000000000000000000000000000000000000000000000000000000000000000000000000000000000000000000000000000000000000000000000000000000000000000000000000000000000000000000000000000000000000000000000000000000000000000000000000000000000000000000000000000000000000000000000000000000000000000000000000000000000000000000000000000000000000000000000000000000000000000000000000000000000000000000000000000000000000000000000000000000000000000000000000000000000000000000000000000000000000000000000000000000000000000000000000000000000000000000000000000000000000000000000000000000000000000000000000000000000000000000000000000000000000000000000000
#02759:0000000000640000
#0275a:0000000000006464
#02757:00000000000000240000000000000000
#02756:000000000000000000000000000000000000000000000000000000000000000000000000000000000000000000000000000000000000000000000000000000000000000000000000000000000000000000000000000000000000000000000000000000000000000000000000000000000000000000000000000000000000000000000000000000000000000000000000000000000000000000000000000000000000000000000000000000000000000000000000000000000000000000000000000000000000000000000000000000000000000000000000000000000000000000000000000000000000000000000000000000000000000000000000000000000000000000000000000000000000000000000000000000000000000000000000000000000000000000000000000000000000000000000000000000000000000000000000000000000000000000000000000000000000000000000000000000000000000000000000000000000000000000000000000000000000000000000000000000000000000000000000000000000000000000000000000000000000000000000000000000000000000000000000000000000000000000000000000000000000000000000000000000000000000000000000000000000000000000000000000000000000000000000000000000000000000000000000000000000000000000000000000000000000000000000000000000000000000000000000000000000000000000000000000000000000000000000000000000000000000000000000000000000000000000000000000000000000000000000000000000000000000000000000000000000000000000000000000000000000000000000000000000000000000000000000000000000000000000000000000000000000000000000000000000000000000000000000000000000000000000000000000000000000000000000000000000000000000000000000000000000000000000000000000000000000000000000000000000000000000000000000000000000000000000000000000000000000000000000000000000000000000000000000000000000000000000000000000000000000000000000000000000000000000000000000000000000000000000000000000000000000000000000000000000000000000000000000000000000000000000000000000000000000000000000000000000000000000000000000000000000000000000000000000000000000000000000000000000000000000000000000000000000000000000000000000000000000000000000000000000000000000000000000000000000000000000000000000000000000000000000000000000000000000000000000000000000000000000000000000000000000000000000000000000000000000000000000000000000000000000000000000000000000000000000000000000000000000000000024240000000000000000000000000000000000000000000000000000000000000000000000000000000000000000000000000000000000000000000000000000000000000000000000000000000000000000000000000000000000000000000000000000000000000000000000000000000000000000000000000000000000000000000000000000000000000000000000000000000000000000000000000000000000000000000000000000000000000000000000000000000000000000000000000000000000000000000000000000000000000000000000000000000000000000000000000000000000000000000000242400000000000000000000000000000000000000000000000000000000000000000000000000000000000000000000000000000000000000000000000000000000000000000000000000000000000000000000000000000000000000000000000000000000000000000000000000000000000000000000000000000000000000000000000000000000000000000000000000000000000000000000000000000000000000000000000000000000000000000000000000000000000000000000000000000000000000000000000000000000000000000000000000000000000000000000000000000000000000000000242400000000000000000000000000000000000000000000000000000000000000000000000000000000000000000000000000000000000000000000000000000000000000000000000000000000000000000000000000000000000000000000000000000000000000000000000000000000000000000000000000000000000000000000000000000000000000000000000000000000000000000000000000000000000000000000000000000000000000000000000000000000000000000000000000000000000000000000000000000000000000000000000000000000000000000000000000000000000000000000000000000000000000000000000000000000000000000000000000000000000000000000000000000000000000000000000000000000000000000000000000000000000000000000000000000000000000000000000000000000000000000000000000000000000000000000000000000000000000000024
#02752:0000005600005454
#02753:0000000055540000
#02856:24000000000000000023000000000000
#0285b:0000006300630000
#02857:00000000000000230000000000000000
#02852:0034000053000000
#02855:0000001600000000
#0285a:0044000000000000
#02957:00000000000000000000000000330000
#02952:00000000000000000000000000330000
#03157:0053000000000000
#0315b:00000023000000000000000000000000
#03152:0053000000000000
#03156:00000023000000000000000000000000
#0325b:00000043000000006300000000000000
#03256:00000043000000230000000000000000
#03252:0000005300530000
#03257:00000000000000000023000000000000
#03255:0000001600000000
#0335b:0000000000000043
#03352:0000000000000033
#03457:0063000000000000
#03452:00000023000000000000000000005300
#03458:00530000
#0345b:00000000002300000000000000000000
#03456:00000000000000000000000000000023
#001370:12
#0013c0:0022
#001371:0012
#002321:22
#002370:12
#0023c0:0022
#003320:12
#003370:0022
#0033c1:0012
#004371:22
#004320:12000022
#004370:0000005200000000
#004371:00000012
#005371:22
#005320:14
#005340:0000005200000000540000000000000000000000000000000000000000000000
#005330:0054000000000000
#005350:0000000000000052000000005400000000000000000000000000000000000000
#005360:0000000000000000000000520000000000000000000000000000000000000000
#005370:0022
#0053a1:0000000000000000000000000000000014000052000000000000000000000000
#005391:0000000000000000000000000000000000000000540000520000000000000000
#005381:0000000000000000000000000000000000000000000000005400005200000000
#005371:0000000000000054
#006371:22
#006320:1400000000000054
#006340:0000005200000000540000000000000000000000540000520000000000000000
#006330:0000000054000000000000000000000000000000000000005400005200000000
#006350:0000000000000052000000005400000054000052000000000000000000000000
#006360:0000000000000000000000520000005200000000000000000000000000000000
#007320:22
#0073a1:1400005200000000000000000000000000000000000000000000000000000000
#007391:0000000054000052000000000000000000000000000000000000000000000000
#007381:0000000000000000540000520000000000000000000000000000000000000000
#007371:0000005422000000
#007320:0012
#008350:53
#008320:0000562200000000
#008381:13560000
#0083c1:0000002200000000
#0083b1:0000000000000013
#009361:53
#0093b1:0023000000000000
#009360:0014240000000000
#009370:0000001300230000
#009320:0053
#009360:00000013
#0093b0:0000000000000053
#010360:23
#010380:00160000
#0103c0:0000002200000000
#010321:0000162200000000
#010321:0000000000000013
#011371:53
#011321:0023000000000000
#0113b0:0013002300000000
#011360:00530000
#011321:0000001300000000
#011371:0023
#0113b0:0013
#011360:0000000000230000
#011320:00000013
#011370:0000000000000023
#011361:00000013
#0113b1:0000000000000023
#012351:1353000000000000
#012321:0000002900000000
#0123b0:000000000000000000130023000000000000000000000000
#012390:000000000000132300000000
#012370:000000000000000000000000000000130023000000000000
#012320:000000000000000000132300
#012340:000000000000000000000000000000000000000000130023
#013360:132300000000000000000000
#013380:000000000000000013230000000000000000000000000000
#013350:000000000000000000000013230000000000000000000000
#0133b0:000000000000000000000000000013230000000000000000
#013320:000000000000000000000000000000000013230000000000
#014370:00130000
#0143b0:002300
#0143b0:0000001323000000
#014370:00000000000000530000000000000000
#014361:0013
#014321:000000000000002300000000
#014321:0000000000132300
#014361:00000000000000000000005300000000
#015321:0013
#015361:000000000000002300000000
#0153b1:0000000000130000
#015371:000000000000000000000000000000000023000000000000
#016381:000000000000000000000000125200520052005200520052000000000000000022000000000000000000000000000000000000000000000000000000000000000000000000000000000000000000000000000000000000000000000000000000
#016371:000000000000003434343434000000000000000000000000000000000000000000000000000000000000000000000000
#016321:000000000000000000130023000000000000000000000000
#016341:000000000000132300000000
#016361:000000000000000000000000000000130023000000000000
#0163b1:000000000000000000132300
#016391:000000000000000000000000000000000000000000130023
#017371:132300000000000000000000
#017321:000000122200000000000000
#0173c0:000000122200000000000000
#017320:000000000000000000000000000013230000000000000000
#0173b0:000000000000000000000000000000000013230000000000
#018360:00130000
#018320:002300
#018320:0000001300000000
#018360:000000000000000000000023000000000000000000000000
#018360:0013
#018320:000000000000002300000000
#018320:0000000000132300
#018360:00000000000000000000005300000000
#018371:00000013
#0183b1:000000000023
#0183b1:0000000000000013
#018371:000000000000000000000000000000000000000000000023
#019371:13
#0193b1:002300000000000000000000
#0193b1:0013230000000000
#019371:00000053000000000000000000000000
#019371:0000001323000000
#0193b1:00000000000000530000000000000000
#019320:0000001323000000
#019360:00000000000000530000000000000000
#019320:00000013
#020320:0000005300000000000000002600000000000000000000000000000000000000
#0203b1:0013002300000000
#020361:00530000
#020321:0000000000130023
#020371:00000053
#0213b1:00001300005300000000000000000000
#021371:00000053000023000000000000000000
#021391:00530000
#021320:00000000000013000053000000000000
#021360:00000000000000530000230000000000
#021340:0053
#022320:13
#022370:0023000000000000
#0223b0:00130000
#022360:0000002300000000
#022320:0013
#022370:0000000000230000
#022320:0000000000001323
#022360:00000000000000000000000000530000
#022371:0000000000001323
#0223b1:00000000000000000000000000530000
#0233b1:13
#023361:0023000000000000
#023321:00130000
#023371:0000002300000000
#0233b1:0013
#023361:0000000000230000
#0233b1:0000000000001323
#023371:00000000000000000000000000530000
#023360:0000000000001323
#023320:00000000000000000000000000530000
#024370:0013002300000000
#0243b0:00330000
#024321:0000001300000000
#024361:0023
#024361:0000000000130023
#024321:00000033
#0243b0:0000000000000013
#025370:23
#0253b0:0000001323000000
#025370:000000000000000000000000000000000000000000000000000000000000000000000000000000000000000000000000000000000000000000000000000000000000000000000000000000000000000000000000000000000000000000000000000000000000000000000000000000000000000000000000000000000000000000000000000000000000000000000000000000000000000000000000000000000000000000000000000000000000000000000000000000000000000000000000000000000000000000000000000000000000000000000000000000000000000000000000000000000000000000000000000000000000000000000000000000000000000000000000000000000000000000000000000000000000000000000000000000000000000000000000000000000000000000000000000000000000000000000000000000000000000000000000000000000000000000000000000000000000000000000000000000000000000000000000000000000000000000000000000000000000000000000000000000000000000000000000000000000000000000000000000000000000000000000000000000000000000000000000000000000000000000000000000000000000000000000000000000000000000000000000000000000000000000000000000000000000000000000000000000000000000000000000000000000000000000000000000000000000000000000000000000000000000000000000000000000000000000000000000000000000000000000000000000000000000000000000000000000000000000000000000000000000000000000000000000000000000000000000000000000000000000000000000000000000000000000000000000000000000000000000000000000000000000000000000000000000000000000000000000000000000000000000000000000000000000000000000000000000000000000000000000000000000000000000000000000000000000000000000000000000000000000000000000000000000000000000000000000000000000000000000000000000000000000000000000000000000000000000000000000000000000000000000000000000000000000000000000000000000000000000005300000000000000000000000000000000000000000000000000000000000000000000000000000000000000000000000000000000000000000000000000000000000000000000000000000000000000000000000000000000000000000000000000000000000000000000000000000000000000000000000000000000000000000000000000000000000000000000000000000000000000000000000000000000000000000000000000000000000000000000000000000000000000000000000000000000000000000000000000000000000000000000000000000000000000000000000000000000000000000000000000000000000000000000000000000000000000000000000000000000000000000000000000000000000000000000000000000000000000000000000000000000000000000000000000000000000000000000000000000000000000000000000000000000000000000000000000000000000000000000000000000000000000000000000000000000000000000000000000000000000000000000000000000000000000000000000000000000000000000000000000000000000000000000000000000000000000000000000000000000000000000000000000000000000000000000000000000000000000000000000000000000000000000000000000000000000000000000000000000000000000000000000000000000000000000000000000000000000000000000000000000000000000000000000000000000000000000000000000000000000000000000000000000000000000000000000000000000000000000000000000000000000000000000000000000000000000000000000000000000000000000000000000000000000000000000000000000000000000000000000000000000000000000000000000000000000000000000000000000000000000000000000000000000000000000000000000000000000000000000000000000000000000000000000000000000000000000000000000000000000000000000000000000000000000000000000000000000000000000000000000000000000000000000000000000000000000000000000000000000000000000000000000000000000000000000000000000000000000000000000000000000000000000000000000000000000000000000000000000000000000000000000000000000000000000000000000000000000000000000000000000000000000000000000000000000000000000000000000000000000000000000000000000000000000000000000000000000000000000000000000000000000000000000000000000000000000000000000000000000000000000000000000000000000000000000000000000000000000000000000000000000000000000000000000000000000000000000000000000000000000000000000000000000000000000000000000000000000000000000
#025321:0000001323000000
#025361:00000000000000530000000000000000
#026381:12
#0263b1:0053000023000000000000000000000000000000000000000000000000000000
#026360:12
#026320:0053000023000000000000000000000000000000000000000000000000000000
#0263b0:0000001323000000
#026380:00000000000000530000000000000000
#026321:0000001600000000
#027321:0000005600005434
#027351:000000000000000000000000000000000000000000000000000000000000000000000000000000000000000000000000000000000000000000000000000000000000000000000000000000000000000000000000000000000000000000000000000000000000000000000000000000000000000000000000000000000000000000000000000000000000000000000000000000000000000000000000000000000000000000000000000000000000000000000000000000000000000000000000000000000000000000000000000000000000000000000000000000000000000000000000000000000000000000000000000000000000000000000000000000000000000000000000000000000000000000000000000000000000000000000000000000000000000000000000000000000000000000000000000000000000000000000000000000000000000000000000000000000000000000000000000000000000000000000000000000000000000000000000000000000000000000000000000000000000000000000000000000000000000000000000000000000000000000000000000000000000000000000000000000000000000000000000000000000000000000000000000000000000000000000000000000000000000000000000000000000000000000000000000000000000000000000000000000000000000000000000000000000000000000000000000000000000000000000000000000000000000000000000000000000000000000000000000000000000000000000000000000000000000000000000000000000000000000000000000000000000000000000000000000000000000000000000000000000000000000000000000000000000000000000000000000000000000000000000000000000000000000000000000000000000000000000000000000000000000000000000000000000000000000000000000000000000000000000000000000000000000000000000000000000000000000000000000000000000000000000000000000000000000000000000000000000000000000000000000000000000000000000000000000000000000000000000000000000000000000000000000000000000000000000000000000000000000000000000005400000000000000000000000000000000000000000000000000000000000000000000000000000000000000000000000000000000000000000000000000000000000000000000000000000000000000000000000000000000000000000000000000000000000000000000000000000000000000000000000000000000000000000000000000000000000000000000000000000000000000000000000000000000000000000000000000000000000000000000000000000000000000000000000000000000000000000000000000000000000000000000000000000000000000000000000000000000000000000000000000000000000000000000000000000000000000000000000000000000000000000000000000000000000000000000000000000000000000000000000000000000000000000000000000000000000000000000000000000000000000000000000000000000000000000000000000000000000000000000000000000000000000000000000000000000000000000000000000000000000000000000000000000000000000000000000000000000000000000000000000000000000000000000000000000000000000000000000000000000000000000000000000000000000000000000000000000000000000000000000000000000000000000000000000000000000000000000000000000000000000000000000000000000000000000000000000000000000000000000000000000000000000000000000000000000000000000000000000000000000000000000000000000000000000000000000000000000000000000000000000000000000000000000000000000000000000000000000000000000000000000000000000000000000000000000000000000000000000000000000000000000000000000000000000000000000000000000000000000000000000000000000000000000000000000000000000000000000000000000000000000000000000000000000000000000000000000000000000000000000000000000000000000000000000000000000000000000000000000000000000000000000000000000000000000000000000000000000000000000000000000000000000000000000000000000000000000000000000000000000000000000000000000000000000000000000000000000000000000000000000000000000000000000000000000000000000000000000000000000000000000000000000000000000000000000000000000000000000000000000000000000000000000000000000000000000000000000000000000000000000000000000000000000000000000000000000000000000000000000000000000000000000000000000000000000000000000000000000000000000000000000000000000000000000000000000000000000000000000000000000000000000000000000000000000000000000000000000000000000
#027331:0000000055540000
#027361:00000000000000000054005400540000
#028361:54
#028321:0024000000000000
#0263a0:0000000000132300
#026370:00000000000000000000005300000000
#026390:0000000000000013
#026360:00000000000000000000000000000053
#027390:23
#027380:0013230000000000
#027350:00000053000000000000000000000000
#027380:0000001655000000
#027370:00000000000000540000000000000000
#027360:000000000000000000000000000000000000000000000000000000000000000000000000000000000000000000000000000000000000000000000000000000000000000000000000000000000000000000000000000000000000000000000000000000000000000000000000000000000000000000000000000000000000000000000000000000000000000000000000000000000000000000000000000000000000000000000000000000000000000000000000000000000000000000000000000000000000000000000000000000000000000000000000000000000000000000000000000000000000000000000000000000000000000000000000000000000000000000000000000000000000000000000000000000000000000000000000000000000000000000000000000000000000000000000000000000000000000000000000000000000000000000000000000000000000000000000000000000000000000000000000000000000000000000000000000000000000000000000000000000000000000000000000000000000000000000000000000000000000000000000000000000000000000000000000000000000000000000000000000000000000000000000000000000000000000000000000000000000000000000000000000000000000000000000000000000000000000000000000000000000000000000000000000000000000000000000000000000000000000000000000000000000000000000000000000000000000000000000000000000000000000000000000000000000000000000000000000000000000000000000000000000000000000000000000000000000000000000000000000000000000000000000000000000000000000000000000000000000000000000000000000000000000000000000000000000000000000000000000000000000000000000000000000000000000000000000000000000000000000000000000000000000000000000000000000000000000000000000000000000000000000000000000000000000000000000000000000000000000000000000000000000000000000000000000000000000000000000000000000000000000000000000000000000000000000000000000000000000000000000000000000000000000000000000000000000000000000000000000000000000000000000000000000000000000000000000000000000000000000000000000000000000000000000000000000000000000000000000000000000000000000000000000000000000000000000000000000000000000000000000000000000000000000000000000000000000000000000000000000000000000000000000000000000000000000000000000000000000000000000000000000000000000000000000000000000000000000000000000000000000000000000000000000000000000000000000000000000000000000000000054000000000000000000000000000000000000000000000000000000000000000000000000000000000000000000000000000000000000000000000000000000000000000000000000000000000000000000000000000000000000000000000000000000000000000000000000000000000000000000000000000000000000000000000000000000000000000000000000000000000000000000000000000000000000000000000000000000000000000000000000000000000000000000000000000000000000000000000000000000000000000000000000000000000000000000000000000000000000000000000000005400000000000000000000000000000000000000000000000000000000000000000000000000000000000000000000000000000000000000000000000000000000000000000000000000000000000000000000000000000000000000000000000000000000000000000000000000000000000000000000000000000000000000000000000000000000000000000000000000000000000000000000000000000000000000000000000000000000000000000000000000000000000000000000000000000000000000000000000000000000000000000000000000000000000000000000000000000000000000000000005400000000000000000000000000000000000000000000000000000000000000000000000000000000000000000000000000000000000000000000000000000000000000000000000000000000000000000000000000000000000000000000000000000000000000000000000000000000000000000000000000000000000000000000000000000000000000000000000000000000000000000000000000000000000000000000000000000000000000000000000000000000000000000000000000000000000000000000000000000000000000000000000000000000000000000000000000000000000000000000000000000000000000000000000000000000000000000000000000000000000000000000000000000000000000000000000000000000000000000000000000000000000000000000000000000000000000000000000000000000000000000000000000000000000000000000000000000000000000000054
#027390:0000000000540000
#0273a0:0000000000005434
#0283a0:0024000000000000
#0283b0:0000001323000000
#028370:00000000000000530000000000000000
#028321:0000000013230000
#028361:00000000000000000053000000000000
#0283b0:0000000000130000
#028370:00000023
#029360:00001323000000000000000000000000
#029390:00000000132300000000000000000000
#029320:00000000000013230000000000000000
#0293b0:00000000000000001323000000000000
#029320:00000000000000000000132300000000
#030360:0013230000000000
#030320:00000053000000000000000000000000
#0303b1:0013230000000000
#030371:00000053000000000000000000000000
#0303b1:0000001300000000
#030361:0023
#030320:0013
#030370:0000000000230000
#030320:00000013
#030360:0000000000000000000000000000000000000000000000000053230000000000
#030371:00000013
#0303b1:0000000000000000000000000000000000000000000000000053230000000000
#031371:0013230000000000
#0313b1:00000053000000000000000000000000
#031320:0013230000000000
#031360:00000053000000000000000000000000
#031320:0000001300000000
#031370:0023
#0313b0:0000000000130000
#031360:00000023
#032320:0000001323000000
#032360:00000000000000530000000000000000
#0323b1:0000000013230000
#032371:00000000000000000053000000000000
#032320:0000000000130000
#032360:00000023
#033370:00001323000000000000000000000000
#033340:00000000132300000000000000000000
#0333b0:00000000000013230000000000000000
#033320:00000000000000001323000000000000
#0333b0:00000000000000000000132300000000
#033340:00000000000000000000000013230000
#034370:0013000000000000
#034320:00000053000000000000000000000000
#034350:00230000
#034381:00130000
#0343b1:00000000005300000000000000000000
#034361:0000002300000000
#034361:00000000000000000000000000142400
#034320:0000000000000013
#034360:00000000000000000000000000000053
#035320:23
#0353b1:1323000000000000
#035371:00530000000000000000000000000000
#035320:0014240000000000
#035360:00000054000000000000000000000000
#035360:0000001300230000
#0353b0:0053
#035320:0000000000000013
#036370:23
#036320:0013000000000000
#036370:00230000
#036370:0000001300230000
#036320:0053
#0363b0:0000000000000013
#037360:23
#037320:0000001300230000
#037370:0053
#0373b0:0000000000000013
#038360:53
#0383b0:0023000000000000
#038321:0013002900000000
#038321:0000000000000000000000000000001300000000000000000000000052000000
#039341:00000000005200000000000000000000000000000000000000000000000000000000000000000000000000000000000000000000000000000000000000000000
#039371:0000005200000000
#039321:0000002c
