This file was generated by Ched 2.6.4.0.
#TITLE ""
#ARTIST ""
#DESIGNER ""
#DIFFICULTY 0
#PLAYLEVEL
#SONGID ""
#WAVE ""
#WAVEOFFSET 0
#JACKET ""
#REQUEST "ticks_per_beat 480"
#00002: 4
#BPM01: 80
#00008: 01
#TIL00: ""
#HISPEED 00
#MEASUREHS 00
#00914:0000001400000014
#00918:0000000000140000
#01118:0000001400000014
#01114:0000000000140000
#01212:0000001400000000
#01218:0000000000140000
#01214:0000000000000014
#01210:0000004100000000
#0131a:0014000000000000
#01314:0000001400000000
#01318:0000000000140000
#01312:0000000000000014
#0141a:0000001400000000
#01414:0000000000140000
#01418:0000000000000014
#01512:0014000000000000
#01518:0000001400000000
#01514:0000000000140000
#0151a:0000000000000014
#01612:0000001400000000
#0161a:0000000000140000
#01614:0000000000000014
#01610:0000004100000000
#01718:0014000000000000
#01714:0000001400000000
#0171a:0000000000140000
#01712:0000000000000014
#0181a:0000001400000000
#01812:0000000000140000
#01818:0000000000000014
#01914:0014000000000000
#01918:0000001400000000
#01912:0000000000140000
#0191a:0000000000000014
#02114:0014000000140000
#02118:0000001400000000
#0221a:0014000000000000
#02216:0000001400000000
#02212:0000000000140000
#02312:0014000000000000
#02316:0000001400000000
#0231a:0000000000140000
#02612:0000001400000000
#0261a:0000000000140000
#02616:0000000000000014
#02712:0014000000000000
#0271a:0000001400000000
#02714:0000000000000014
#02818:0014000000000000
#0281a:0000000000140000
#02812:0000000000000014
#02814:0000002400000000
#0281f:0000002100000000
#0291a:0014000000000000
#02916:0000001400000014
#02912:0000000000140000
#02910:0000004100000000
#0301a:0014000000000014
#03012:0000001400000000
#03016:0000000000140000
#03114:0014000000000000
#03118:0000001400000000
#03112:0000000000140000
#0311a:0000000000000014
#03214:0014000000000000
#03212:0000000000140000
#0321a:0000000000000014
#03218:0000002400000000
#03312:0014000000000000
#03316:0000001400000014
#0331a:0000000000140000
#03310:0000004100000000
#03412:0014000000000014
#0341a:0000001400000000
#03416:0000000000140000
#03518:0014000000000014
#03514:0000001400000000
#03814:0000001400000000
#0361a:0000000000000014
#03612:0000001400000000
#03912:0000001400000000
#0241f:0011000000000000
#00810:0000004100000000
#02010:0000004100000000
#03854:0000006400000000
#03554:0000006400000000
#03558:0000000000000054
#0365a:0000000000000064
#03652:0000005400000000
#03952:0000002400000000
#02854:0000001400000000
#03258:0000001400000000
#02054:0000001400000000
#02058:0000000000000014
#02458:0000001400000000
#02454:0000000000000014
#02552:0000000000140000
#0255a:0000000000140000
#0013a0:14
#001380:0024
#002320:14
#002340:0024
#003380:14
#0033a0:0024
#004340:14
#004320:00000024
#0053a0:14
#005380:0024
#006320:14
#007360:24
#007380:0014
#0083a0:24
#008320:0000001400240000
#0083a0:0000000000000014
#0093a0:0024000000000000
#0103a0:0000001400240000
#010320:0000000000000014
#011320:0024000000000000
#020320:0014000000000000
#020340:0000002400000000
#0203a0:0000000000140000
#020380:0000000000000024
#0243a0:0014000000000000
#024380:0000002400000000
#024320:0000000000140000
#024340:0000000000000024
#025320:0000001400240000
#0253a1:0000001400240000
#035341:0000001400000000
#035321:0000000000240000
#035381:0000000000000014
#0363a1:0024000000000000
#036321:0000001400000000
#036341:0000000000240000
#0363a1:0000000000000014
#037381:0024000000000000
#037341:0000001400240000
#037381:0000000000000014
#038381:0024000000000000
#038341:0000001400000000
#039321:0000005400000000
#039341:00000024
