This file was generated by Ched 2.6.4.0.
#TITLE ""
#ARTIST ""
#DESIGNER ""
#DIFFICULTY 0
#PLAYLEVEL
#SONGID ""
#WAVE ""
#WAVEOFFSET 0
#JACKET ""
#REQUEST "ticks_per_beat 480"
#00002: 4
#BPM01: 165
#BPM02: 140
#01008: 01
#00008: 02
#TIL00: ""
#HISPEED 00
#MEASUREHS 00
#00414:14
#00514:14
#00614:14
#00818:14
#00918:14
#01312:14
#0141a:14
#0171a:14
#01812:14
#02114:14
#02218:14
#02314:14
#0241a:14
#02512:14
#0261a:14
#02712:14
#0281a:14
#02810:41
#02914:14
#03018:14
#03112:14
#03218:14
#03312:14
#0341a:14
#03514:14
#05212:0016
#05218:26
#0521f:21
#05618:1616
#05712:1616
#06018:0016
#06012:26
#06412:1616
#06410:41
#06518:1616
#06718:0016
#06812:1616
#06918:1616
#07118:0016
#07112:00000016
#0441f:11
#05310:41
#01210:41
#02010:41
#03610:41
#010380:14
#012380:24
#015340:1434
#016340:24
#019380:1434
#020380:24
#0363a0:14
#0373a0:24
#038320:14
#039320:24
#040380:14
#041380:24
#042340:14
#043340:24
#0443a0:14
#0453a0:24
#046320:14
#047320:24
#048380:14
#049380:24
#050340:14
#051340:24
#053380:1626
#054320:1600003600360036
#055320:0026
#058380:1600003600360036
#059380:0026
#061320:1626
#062380:1600003600360036
#063380:0026
#066320:16
#067320:26
#070320:16
#071320:26
#072380:16
#074380:00000000000000000026000000000000
