This file was generated by Ched 2.6.4.0.
#TITLE ""
#ARTIST ""
#DESIGNER ""
#DIFFICULTY 0
#PLAYLEVEL
#SONGID ""
#WAVE ""
#WAVEOFFSET 0
#JACKET ""
#REQUEST "ticks_per_beat 480"
#00002: 4
#BPM01: 165
#BPM02: 140
#01008: 01
#00008: 02
#TIL00: ""
#HISPEED 00
#MEASUREHS 00
#0441f:11
#0441b:13
#04417:0000001300001300
#04412:00130000
#02712:13
#02716:0000001313000000
#0271b:00131300
#02717:23000013
#05716:1300000000130000
#0571b:1300000000130000
#05717:0013
#05712:00131300
#05316:2400001424000000
#05312:24000014
#0531a:00142400
#05317:0000000000140013
#05315:0014000000000000
#05310:41
#05216:2400001424000014
#05212:24000014
#0521a:00142400
#05217:0000000000140000
#05215:0014000000000000
#0521f:21
#06116:2400001424000013
#0611a:24000014
#06112:00142400
#06115:0000000000140000
#06117:0014000000000000
#06016:2400001424000014
#0601a:24000014
#06012:00142400
#06015:0000000000140000
#06017:0014000000000000
#05917:0000230000000013
#05916:0000000000130000
#05912:00001313
#05915:0000001300000000
#05919:0023
#0591b:00000023
#06317:0000001300000013
#0631b:00130013
#06316:00130000000000000000130000000000
#06312:0013
#05516:0000001300000013
#05512:00130013
#0551b:0000000013000013
#05517:00130000000000000000130000000000
#06716:0000000000000013
#06712:00000013
#0671b:13131300
#06718:0013000000000000
#06717:0000001300000000
#0691b:13
#06912:0000131300000013
#06917:0000131300000000
#06816:00000000000000000000000000130000
#06812:0000000000130000
#0681b:0000001300000000
#06817:13
#06815:0000131300000000
#06616:0013
#06612:13
#0661b:13
#06515:0000001300000013
#0651b:00131313
#06512:13131313
#06518:0000000000130000
#02316:0000001313000000
#02312:13
#0231b:00131300
#02317:13000013
#06212:0000131300001313
#06217:0000001300000013
#0621b:1300000000130000
#06216:13
#05816:1300000000000013
#05819:0000000000130000
#05812:0000131300000000
#0581b:1300000000000023
#05814:0000000000230000
#05817:0000002300000000
#0561b:1300000000001313
#05612:0000131313000000
#05617:0013
#0541b:0000131300001313
#05416:0000001300000013
#05412:1300000000130000
#05417:13
#06417:00000000000000000000000000130000
#0641b:0000000000130000
#06412:0000001300000000
#06416:13
#06418:0000131300000000
#06410:41
#04015:0013001300000000
#04018:00130000
#0401b:1313
#04012:13001313
#03818:0000001300000013
#03815:0013000000130000
#03718:0000001300000013
#03715:0013000000130000
#03918:0000001300130013
#03915:00130013
#0391b:2313
#03912:0013000000000000
#02612:0000000013000013
#0261b:00130013
#02616:00230023
#02617:2323
#0221b:0000000000000013
#02216:13
#02212:00001313
#02217:0000001300001300
#04916:00000013
#04912:0013
#04917:00130000
#0491b:13
#04712:00130000
#04716:1300000000000013
#04717:00130000
#0471b:13000013
#0461b:0000130000000013
#04617:13000013
#04616:0000130000000013
#04612:13000013
#04317:00130000
#0431b:13
#04318:00000013
#04315:0000000000000013
#04212:0013
#04216:13
#0421a:2400002400002400
#03518:13
#0351b:0013
#03512:0000001313000000
#03312:00000000000000000000000000130000
#03315:1300130000130000
#0321b:00000000000000000000000000130000
#03218:0000130000130000
#03117:0000001300000000
#03116:13000013
#0311b:1300000000000013
#0301b:0013
#03017:13
#03012:00000013
#03016:0000001313000000
#01718:1300000000130000
#01715:0013000013000000
#01712:00000013
#0171b:00130000
#0161b:0000000000130000
#01612:0013000013000000
#01615:00000013
#01618:00130000
#0161a:24
#03612:00000013
#0361b:00130000
#03615:0000000000130000
#03618:0013000000000000
#03610:41
#01515:0000000000000013
#01513:0000000000130000
#0151a:0000001300000000
#01518:0013000000002400
#01516:0024
#01514:00240000
#01512:24
#03418:1300001300130000
#0341b:00130013
#03415:0013
#03412:00130000
#04117:13
#04115:00000013
#0411a:00000013
#04119:0013
#04114:0013
#04118:00130000
#04113:00130000
#04112:13
#01412:13
#01418:0000130000130000
#0141b:0013
#01415:0013000000001300
#01315:1300000000130000
#01318:0013000013000000
#0131b:00000013
#01312:00130000
#01212:2600000000130000
#0121b:0013000013000000
#01218:00000013
#01215:00130000
#01210:41
#0241b:13001313
#02417:00130000
#02412:13
#04816:13
#04519:00000013
#04514:00000013
#04516:1313
#0451b:0013
#04517:00130000
#04512:00130000
#0281b:00130000
#02817:23
#02812:23
#02810:41
#0251b:00001313
#02517:13130000
#02112:00001313
#02116:13130000
#02012:23001313
#02016:00130000
#02010:41
#01818:0000001400150016
#01812:00000016
#01813:0015
#01814:00140000
#0721a:14
#07212:28
#07116:0014141400001400
#07112:0014
#01915:0013000000000013
#01917:00000013
#01919:0000000000130000
#0191b:0013
#01912:0000001300000000
#01918:00130000
#07416:00000000000000240028000000000000
#07412:0024
#00516:0000000022000022
#00518:22
#07012:2400002400002400
#0701a:2400002400002400
#05112:2c
#0101a:22
#00916:0022
#0091a:22
#00816:0022
#00814:22
#00714:0000000000000022
#00614:0000000000000022
#00616:00000022
#00618:0000000000220000
#0061a:2200002200000000
#0061c:00220000
#0041a:0022
#00416:22
#05016:00003434340034003434343434343434
#01114:0032323232323232
#06952:3300005300000000
#05752:00005333
#05757:00135333
#05756:0000000000230000
#0575b:6300000000230000
#05052:33
#0495b:6343
#04956:13000023
#04952:0053
#04957:00230000
#04756:6343
#0475b:6343
#04752:00230000
#04757:00230000
#04657:5333
#04652:5333
#0465b:00230000
#04656:00230000
#0455b:13
#0655b:43
#05656:00000013
#05657:00130000
#0565b:63
#05652:0053
#07456:00000000000000000048000000000000
#06152:00345400
#06156:3444
#0615a:64000044
#06155:0000000000240000
#06157:0024000000000000
#06052:00345400
#06056:3444
#0605a:64000044
#06055:0000000000240000
#06057:0024000000000000
#0585b:6300000000000013
#05854:0000000000130000
#05857:0000001300000000
#05856:0000000000000063
#0535a:00446400
#05356:4434
#05352:54000034
#05357:0000000000240000
#05355:0024000000000000
#0525a:00446400
#05256:4434
#05252:54000034
#05257:0000000000240000
#05255:0024000000000000
#07052:0000001400000000
#0705a:14000014
#05152:1c
#01252:16
#01258:00000013
#01255:00130000
#02752:63
#02756:0053
#06357:0000002300000023
#0635b:00630063
#06356:00230000000000000000230000000000
#06352:0053
#05556:0000002300000023
#05552:00530053
#05557:00230000000000000000230000000000
#0555b:0063
#06756:0000000000000023
#06752:00000053
#0675b:63636300
#06758:0053000000000000
#06757:0000005300000000
#06856:00000000000000000000000000230000
#06852:0000000000530000
#0685b:0000006300000000
#06857:53
#06656:0023
#06652:53
#0665b:13
#02356:0063
#02352:53
#06252:0000005300000053
#0625b:63
#0545b:0000006300000063
#05452:53
#06457:00000000000000000000000000230000
#0645b:0000000000630000
#06452:0000005300000000
#06456:63
#0445b:63
#04457:00000053
#04357:00230000
#0435b:63
#04252:0023
#04256:63
#0405b:0063
#03558:53
#0355b:0023
#03552:0023
#03352:00000000000000000000000000230000
#03355:0000000000630000
#0325b:00000000000000000000000000230000
#03258:0000000000530000
#03157:0000005300000000
#03156:63
#0305b:0063
#03057:53
#02256:63
#01752:00000013
#0175b:00130000
#01655:00000013
#01658:00130000
#01455:00000013
#01458:00130000
#0135b:00000013
#01352:00130000
#0725a:14
#010340:12
#011340:3232323232323232
#012320:26
#018380:14240000
#0203b0:00130000
#020370:0023
#020370:00000013
#0213b0:23
#0213b0:00130000
#021370:0023
#021370:00000013
#0223b0:23
#022361:13
#022321:0000002300000000
#023321:13
#023361:00230000
#023361:0013
#023321:00000023
#024321:00130000
#024361:0023
#024361:00000013
#025321:23
#025321:00130000
#025361:0023
#025361:00000013
#026321:23
#027321:13
#027361:00230000
#027361:0013
#027321:00000023
#028361:00130000
#028321:0023
#028370:0013
#0283b0:00000023
#028321:00000013
#029361:23
#0293b0:13
#029390:00230000
#029361:00130000
#029341:0023
#029390:0013
#029370:00000023
#029341:00000013
#030321:23
#030370:13
#0303b0:0000002300000000
#0303b0:0013
#030370:00000023
#031360:13
#031320:0000002300000000
#031371:0000001300000000
#0313b1:00000023
#032351:13230000
#032321:0000001300000000
#032351:0000000000230000
#032380:0000000000130000
#0323b0:00000000000000000000000000530000
#033380:23
#0333b0:0000001300000000
#033380:0000000000230000
#033351:0000000000130000
#033321:00000000000000000000000000530000
#034351:23
#034321:00000013
#035321:23
#035380:13
#0353b0:0000002300000000
#0353b0:0013
#035380:00000023
#035321:0013
#035351:00000023
#036321:13
#036351:00230000
#0363b1:0013
#036381:00000023
#037381:13
#0373b1:00230000
#037350:00130000
#037320:0023
#037381:0013
#0373b1:00000023
#037350:00000013
#038320:23
#0383b1:13
#038381:00230000
#038320:00130000
#038350:0023
#0383b1:0013
#038381:00000023
#038320:00000013
#039350:23
#0403b0:0013
#040370:00000023
#042360:13
#042320:0053
#043360:23
#0433b1:1323
#043371:00530000
#043360:0013
#043320:00000023
#0443b0:13
#044370:00230000
#044340:00001323
#044371:00000013
#0453b1:23
#046371:1323
#0463b1:00530000
#046320:1323
#046360:00530000
#047360:1323
#047320:00530000
#0473b1:1323
#047371:00530000
#0483b1:13
#048371:00332300
#048320:00133300
#048360:00000033
#049360:23
#0483b1:00000013
#0493b1:3323
#049371:00530000
#049320:0013
#049360:00000053
#050320:23
#050361:14003434340034003434343434343434
#051321:2c
#052321:14240000
#052351:0054000000000000
#0523a1:00001424
#052371:0000000000540000
#053321:14240000
#053351:0054000000000000
#0533a1:00001424
#053371:0000000000540000
#054321:13
#054361:00230000
#0543b1:0000001300000000
#054371:0000000000230000
#0543b1:0000000000000013
#055371:00530000000000000000000000000000
#0553b1:00230000
#055320:00132300
#055360:0000005300000000
#0553b1:00001323
#055371:0000000000530000
#055320:00000013
#055360:0000000000000053
#056320:23
#0563b1:13
#056371:00230000
#056321:0013
#056361:00000023
#0573b1:13
#057371:00230000
#057321:0000001333002300
#057361:0000000000530000
#057370:00001323
#0573b0:0000000000530000
#0583b0:13
#058370:00230000
#058360:0000000000000013
#059320:00230000
#0603a0:14240000
#060370:0054000000000000
#060320:00001424
#060350:0000000000540000
#0613a0:14240000
#061370:0054000000000000
#061320:00001424
#061350:0000000000540000
#0623b0:13
#062370:00230000
#062320:0000001300000000
#062360:0000000000230000
#062320:0000000000000013
#063360:00530000000000000000000000000000
#063320:00230000
#0633b1:00132300
#063371:0000005300000000
#063320:00001323
#063360:0000000000530000
#0633b1:00000013
#063371:0000000000000053
#0643b1:23
#064360:13
#064320:00230000
#064320:0000001300000000
#064360:0000000000230000
#0643b1:0000000000130000
#064371:00000000000000000000000000530000
#0653b1:23
#066321:13
#066361:0053
#067321:23
#0673b0:13333300
#067380:0033000000000000
#067370:0000003300002300
#067321:00000013
#067361:0000000000000053
#068321:23
#068370:13
#0683b0:00230000
#0683b0:0000001300000000
#068370:0000000000230000
#068321:0000000000130000
#068361:00000000000000000000000000530000
#069321:23
#069321:0000001300000000
#069361:0000000000230000
#0693b0:0000000000130023
#072320:18
#074320:00000000000000240000000000000000
