This file was generated by Ched 2.6.4.0.
#TITLE ""
#ARTIST ""
#DESIGNER ""
#DIFFICULTY 0
#PLAYLEVEL
#SONGID ""
#WAVE ""
#WAVEOFFSET 0
#JACKET ""
#REQUEST "ticks_per_beat 480"
#00002: 4
#BPM01: 165
#BPM02: 140
#01008: 01
#00008: 02
#TIL00: ""
#HISPEED 00
#MEASUREHS 00
#01912:0013000000000013
#01918:00130013
#01915:0000001300130000
#0191b:0013
#07118:0014001400000000
#07112:0014
#07114:00140000
#0711a:00000014
#01212:00130000
#01218:26001313
#01215:0000000000130000
#01210:41
#05318:0000000000000013
#05312:00140000
#05317:00140000
#05315:24
#0531a:24
#05310:41
#05615:0000001300000000
#05612:0000000000000013
#05618:13
#0561b:0013
#05512:0000000000000013
#05517:00000013000000000000000000000000
#04312:0000000000000013
#04415:0000001300000000
#04418:13000013
#0441b:0013
#0441f:11
#04512:00130000
#04515:0013
#04518:00000013
#03115:0000000000000013
#0311b:13
#03118:0000001300000000
#03912:1300000000000013
#03915:00130000
#03918:13
#0391b:00130000
#04018:13130000
#04015:0013000000000000
#04012:0000001300000000
#0401b:0013
#0131b:00130000
#01315:00001313
#01318:0000000000130000
#01312:13
#01412:00130000
#0141b:13
#01418:00001313
#01415:0000000000130000
#0341b:00130000
#03415:0000001300000000
#03418:0013
#01612:00130000
#0161b:00000013
#01618:0013
#01615:0000000000130000
#0161a:24
#0171b:00130000
#01712:13000013
#01715:0013
#01718:0000000000130000
#0301b:13
#03512:0000001300000000
#0351b:0000001300000000
#03519:0033
#03514:0033
#05418:0000001300000000
#05415:13000013
#0541b:0000000000000013
#06512:0000130000130000
#0651b:00130000
#06515:0000001300000013
#06518:00001313
#0241b:13
#02412:13
#02218:13
#02212:0000000000000013
#0221a:0000003300000000
#0231b:13
#02312:0013
#0261b:0000000000000013
#02615:13
#02712:13
#0271b:0013
#0211b:00000013
#02512:00000013
#02812:23130000
#02815:0013
#0281b:23
#02810:41
#03218:13
#03212:0000000000130000
#03315:0000000000130000
#0331b:00130000
#03612:13
#0361b:0013
#03610:41
#03718:13
#0371b:00130013
#03712:13
#03715:00130013
#03812:1313
#03815:00130013
#03818:1313
#0381b:00130013
#0461b:13
#04618:0000000000000013
#04712:13
#0481b:13
#04819:00130013
#04817:0013
#04816:13
#04814:00130013
#04812:0013
#0491b:13
#04916:13
#04912:0013
#04917:0013
#0501b:13
#05016:13
#05012:0013
#05017:0013
#05715:0000001300000000
#05718:13
#0571b:0013
#0581b:0000000000000013
#05818:0000002300000000
#05815:0000000000230000
#05917:00000000001300000000000000000000
#06118:00000013
#0611a:00140000
#06115:0000140000000013
#06117:24
#06112:24
#0661b:13
#06617:0013
#06712:00000013
#06815:13
#0681b:0000000000130000
#06912:00130000
#0691b:0000001300000000
#06918:0000000000130000
#07416:00000000000000143400000000000000
#04112:13
#0411b:0013
#04212:13
#0631b:00000013
#06316:00000013000000000000000000000000
#06418:13
#06412:0000000000130000
#06410:41
#06215:0000001300000000
#06218:13000013
#06212:0000000000000013
#00418:22
#0041a:0022
#00516:22
#00514:0022
#00518:0000000000000022
#00616:22000022
#0061a:00220000
#00614:0000002200000000
#00618:0000000000220022
#00716:0000000000000022
#00818:22
#00816:0022
#0091a:22
#00914:0022
#01512:24
#01514:00240000
#01516:0024
#01518:00000024
#0201b:23
#02010:41
#05116:23
#0511b:23
#07012:24000024
#0701a:0000002400000000
#07214:28
#05215:24
#0521a:24
#05217:0024
#05212:0024
#0521f:21
#06017:24
#06012:24
#06015:0024
#0601a:0024
#0111a:0032323232323232
#01819:0000333333333300
#01252:00130000
#01258:16000013
#0135b:00130000
#01355:00000013
#01452:00130000
#01458:00000013
#01652:00130000
#0165b:00000013
#0175b:00130000
#01752:00000013
#0305b:63
#03552:0000005300000000
#0355b:0000006300000000
#05458:0000005300000000
#05455:63
#0545b:0000000000000063
#02258:53
#0235b:63
#02352:0053
#02752:53
#0275b:0063
#0215b:00000063
#02655:63
#02552:00000053
#02852:00530000
#02855:0023
#0315b:63
#03158:0000005300000000
#03252:0000000000530000
#03355:0000000000630000
#03652:53
#0365b:0063
#03758:53
#0375b:00630063
#03752:53
#03755:00630063
#03852:5353
#03855:00630063
#03858:5353
#0385b:00630063
#03952:53
#03955:00230000
#03958:53
#0395b:00230000
#0405b:0063
#04458:53000053
#0445b:0063
#0465b:63
#04658:0013
#04752:53
#04755:0013
#05156:13
#0515b:13
#0495b:63
#04956:63
#04952:0053
#04957:0053
#0505b:63
#05056:63
#05052:0023
#05057:0023
#05352:00240000
#05355:6414
#05357:00240000
#0535a:6414
#05758:53000013
#0575b:0063
#0585b:0000000000000063
#05957:00000000002300000000000000000000
#0615a:00240000
#06155:00240000
#06157:5414
#06152:5414
#0665b:63
#06657:0023
#06752:00000053
#06855:63
#0685b:0000000000630000
#06958:1300000000530000
#0695b:0000006300000000
#07052:14000014
#0705a:0000001400000000
#07454:00000000000000000018000000000000
#07456:00000000000000240000000000000000
#07254:68
#04152:53
#0415b:0063
#04252:53
#05255:64
#0525a:64
#05257:0054
#05252:0054
#06057:54
#06052:54
#06055:0064
#0605a:0064
#05658:53
#0565b:0063
#0635b:00000063
#06356:00000023000000000000000000000000
#06458:53
#06452:0000000000530000
#06555:13
#05557:00000023000000000000000000000000
#06255:0000006300000000
#06258:53
#06252:0000000000000053
#0455b:13
#0103a0:12
#0113a0:3232323232323232
#012380:26
#018390:1300333333333300
#018370:0000000000000027
#020350:00130000
#020320:0023
#020380:00000013
#0213b0:23
#021320:00130000
#021350:0023
#0213b0:00000013
#022380:33
#0223a0:0000003300000000
#0223b0:0023
#0233b0:13
#023380:0000002300000000
#023320:0013
#023350:00000023
#024380:00130000
#0243b0:0023
#024350:00000013
#025320:23
#0253b0:00130000
#025380:0023
#025320:00000013
#026350:33
#026320:0023
#027320:13
#027350:0000002300000000
#0273b0:0013
#027380:00000023
#028320:00130023
#028350:0053
#029380:13230000
#029350:00001323
#0303b0:13
#030380:0000002300000000
#030320:00001323
#0313b0:13000023
#031380:0000003300000000
#032320:0000001300330000
#033350:23
#033350:0000001300330000
#034320:23
#034320:0000000000130000
#035320:3300003300000000
#035340:0033
#035350:00000023
#0353b1:1300003300000000
#035391:0033
#035381:00000023
#036321:13
#036351:00230000
#0363b1:0013
#036381:00000023
#037321:1323
#037351:00330000
#037380:1323
#0373b0:00330000
#037350:00000013
#038320:3333
#038350:00330033
#039320:3323
#039350:00530000
#0373b1:00000013
#038381:3333
#0383b1:00330033
#039381:3323
#0393b1:00530000
#0403b1:0013
#040381:00000023
#041321:13
#041351:00230000
#0413b1:0013
#041381:00000023
#042321:13
#043361:23
#044381:13
#0443b1:00230000
#0443b1:0013
#044381:00000033
#0453b1:23
#0463b1:13
#046381:0023
#047321:13
#047351:0023
#0493b1:13
#049371:0033
#0503b1:33
#050371:0053
#0513b1:23
#049360:13
#049320:0033
#050360:33
#050320:0053
#051360:23
#052350:14
#052320:00240000
#0523a1:14
#052371:00240000
#052371:0014
#0523a1:00000024
#052320:0014
#052350:00000024
#053350:1424
#053320:00540000
#0533a1:1424
#053371:00540000
#054351:13
#054321:00230000
#054381:0000001300000000
#0543b1:0000000000230000
#0543b1:0000000000000013
#055371:00000053000000000000000000000000
#0553b1:0023
#056381:13
#0563b1:00230000
#0563b1:0013
#056381:00000023
#057381:13
#0573b1:00230000
#0573b1:0013
#057381:00000023
#058321:13
#058351:00230000
#0583b1:0000000000000013
#059371:00000000005300000000000000000000
#0593b1:00000023
#060371:14
#0603a1:00240000
#060320:14
#060350:00240000
#060350:0014
#060320:00000024
#0603a1:0014
#060371:00000024
#061371:1424
#0613a1:00540000
#061320:1424
#061350:00540000
#062380:13
#0623b0:00230000
#062350:0000001300000000
#062320:0000000000230000
#062320:0000000000000013
#063360:00000053000000000000000000000000
#063320:0023
#0633b0:00000013
#064380:33
#0643b0:00230000
#064320:0000001300330000
#065350:23
#0663b0:13
#066370:0053
#0673b0:23
#067320:00000013
#068350:33
#068320:00230000
#0683b0:0000001300330000
#069380:23
#0693b0:0000001300000023
#069380:0000000000330000
#072340:18
#074360:00000000000000343400000000000000
#074340:00000000000000000028000000000000
