This file was generated by Ched 2.6.4.0.
#TITLE ""
#ARTIST ""
#DESIGNER ""
#DIFFICULTY 0
#PLAYLEVEL
#SONGID ""
#WAVE ""
#WAVEOFFSET 0
#JACKET ""
#REQUEST "ticks_per_beat 480"
#00002: 4
#BPM01: 165
#BPM02: 140
#01008: 01
#00008: 02
#TIL00: ""
#HISPEED 00
#MEASUREHS 00
#01912:00000000000013000000000033333333
#0191b:0013000013000000
#0191a:0000000000130000
#01919:00130013
#01918:0000000000000013
#01916:0013000000000000
#01914:0000130000330000
#01917:0000001300000000
#01915:00000000000000000033000000000000
#01913:00000000000000000000003300000000
#07116:0000141414000000
#07112:0014000014000000
#07114:00000014
#07118:00000014
#0711a:0014000000000000
#0721a:14
#07212:28
#05614:0000001300000013
#0561b:1300000000130000
#05616:1300000000130000
#05619:0000001300000013
#05617:0013000013000000
#05612:0013000013000000
#06912:0000000000000013
#06916:00130000
#06917:0000001300000000
#0691b:00130000
#04314:00000000000000000000000000130000
#0431b:00131300
#04316:00000000000000000013000000000000
#0431a:0000000000130000
#04315:00000000000000000000001300000000
#04319:00000013
#04318:2400000000000013
#04313:00000000000000000000000000000013
#04312:1300001300000000
#04317:0000001300000000
#04412:0000131300130013
#0441b:0013001313001300
#04417:1300000000000013
#04416:00001313
#0441f:11
#02412:13130013
#0241b:1313
#02417:00131313
#03117:0000000000001313
#03112:00000013
#03116:13130000
#03114:0000001300130000
#01218:00000000160000130000130000001300
#01215:0013001313000000
#01212:2c130016
#0121b:00000013
#01210:41
#01312:0013001300001600
#0131b:1300000000130013
#01315:13131300
#01318:00000000160000130000000013000000
#01418:13000000160000130000130000001300
#01412:13001316
#0141b:0013000000001300
#01415:0000131300000000
#03212:1300130000130000
#03216:0000001300000000
#0321b:0000001300000013
#0151b:0013000000130000
#01512:2600001300000013
#01514:00000013260000000000000000000000
#01519:00000000000000130000000000000000
#01515:00000000000000000000001300000000
#01518:00000000000000000000000026000013
#01516:0026
#04014:0013000000000000
#04012:0000001300000013
#04016:00131300
#0401b:0000000013000013
#04017:1300001300001300
#05812:13
#05819:0000000000130000
#05816:0013002400000013
#0581b:00000013000000000000000000000000
#05814:0000000000240000
#0581a:0000000000000024
#01812:1300000000001616
#0181b:13
#01818:0000121314151616
#01814:0014
#01816:00120000
#01813:0000000000150000
#01815:0000001300000000
#02212:13000013
#0221b:00000013
#02217:0000000013130000
#02216:0000000000000013
#02512:00130013
#02516:00131300
#0251b:1313
#0421b:0013000000000013
#04218:00000000130000000013000000000000
#04212:0000002413000000
#04215:00000013000000000000130024000013
#04217:0000002400000000
#0421a:24000024
#05714:0000001300000013
#05719:0000001300000013
#0571b:1300000000130000
#05716:1300000000130000
#05717:0013000013000000
#05712:0013000013000000
#07016:2412002400000014
#07014:00120000
#07018:0012
#0701a:2400000000122400
#07012:0000002400002400
#06417:130000000000000000000000000000000000000000000000000000000000000000000000000000000000000000000000000000000000000000000000000000000000000000000000000000000000000000000000000000000000000000000000000000000000000000000000000000000000000000000000000000000000000000000000000000000000000000000000000000000000000000000000000000000000000000000000000000000000000000000000000000000000000000000000000000000000000000000000000000000000000000000000000000000000000000000000000000000000000000000000000000000000000000000000000000000000000000000000000000000000000000000000000000000000000000000000000000000000000000000000000000000000000000000000000000000000000000000000000000000000000000000000000000000000000000000000000000000000000000000000000000000000000000000000000000000000000000000000000000000000000000000000000000000000000000000000000000000000000000000000000000000000000000000000000000000000000000000000000000000000000000000000000000000000000000000000000000000000000000000000130000000000000000000000000000000000000000000000000000000000000000000000000000000000000000000000000000000000000000000000000000000000000000000000000000000000000000000000000000000000000000000000000000000000000000000000000000000000000000000000000000000000000000000000000000000000000000000000000000000000000000000000000000000000000000000000000000000000000000000000000000000000000000000000000000000000000000000000000000000000000000000000000000000000000000000000000000000000000000000000000000000000000000000000000000000000000000000000000000000000000000000000000000000000000000000000000000000000000000000000000000000000000000000000000000000000000000000000000000000000000000000000000000000000000000000000000000000000000000000000000000000000000000000000000000000000000000000000000000000000000000000000000000000000000000000000000000000000000000000000000000000000000000000000000000000000000000000000000000000000000000000000000000000000000000000000000000000000000000000000130000000000000000000000000000000000000000000000000000000000000000000000000000000000000000000000000000000000000000000000000000000000000000000000000000000000000000000000000000000000000000000000000000000000000000000000000000000000000000000000000000000000000000000000000000000000000000000000000000000000000000000000000000000000000000000000000000000000000000000000000000000000000000000000000000000000000000000000000000000000000000000000000000000000000000000000000000000000000000000000000000000000000000000000000000000000000000000000000000000000000000000000000000000000000000000000000000000000000000000000000000000000000000000000000000000000000000000000000000000000000000000000000000000000000000000000000000000000000000000000000000000000000000000000000000000000000000000000000000000000000000000000000000000000000000000000000000000000000000000000000000000000000000000000000000000000000000000000000000000000000000000000000000000000000000000000000000000000000000000000000000000000000000000000000000000000000000000000000000000000000000000000000000000000000000000000000000000000000000000000000000000000000000000000000000000000000000000000000000000000000000000000000000000000000000000000000000000000000000000000000000000000000000000000000000000000000000000000000000000000000000000000000000000000000000000000000000000000000000000000000000000000000000000000000000000000000000000000000000000000000000000000000000000000000000000000000000000000000000000000001300000000000000000000000000000000000000000000000000000000000000000000000000000000000000000000000000000000000000000000000000000000000000000000000000000000000000000000000000000000000000000000000000000000000000000000000000000000000000000000000000000000000000000000000000000000000000000000000000000000000000000000000000000000000000000000000000000000000000000000000000000000000000000000000000000000000000000000000000000000000000000000000000000000000000000000000000000000000000000000
#0641b:0013001300001300
#06412:13001313
#06416:0013000000130013
#06410:41
#06712:0000001300000013
#06717:0000000000130013
#0671b:0013000000001300
#02317:0013001313001313
#02312:00001300000000001300000000130000
#02316:1300130000130000
#0231b:1300000000130000
#02717:00000000130000000000130000000013
#02719:00000000000000000000000000130000
#02714:0000000000000013
#02716:0013001313001300
#02712:1300000000130000
#0271b:0013000013000000
#0271a:24
#0351b:0000001300000000
#0351c:0000000000120000
#03512:0000001300120000
#03515:1313130000000000
#03518:00130013000000000000000000000000
#03416:14141414
#02616:0013000013130000
#02617:0000131300001313
#02612:00240024
#0261a:2424
#02812:23131300
#0281b:23130013
#02810:41
#03017:0000130000130000
#03016:0013000013001300
#03012:1300001300000013
#0301b:0000001313000013
#03317:1300001300000000
#03312:1300001300000000
#03316:0000130000130000
#0331b:00130000
#03614:0013001300000000
#03612:00131300
#03619:0000000000130013
#0361b:13000013
#03617:00130000
#03616:23000013
#03610:41
#03714:00130000
#03716:0000001413000014
#03719:00001313
#03717:13
#0371b:0013000000130000
#03712:0013000000130000
#03812:0013000000130000
#03814:23130000
#03816:0000001413000014
#0381b:0013000000130000
#03819:00002313
#03817:13
#05015:00001300130000000000000000000013
#05012:13000000000013000013000000000000
#0501b:0000001313000000
#0501a:0000000000130000
#05019:00000013
#05018:00000013000000000000000000001300
#05014:00000000000000000000000000130000
#05013:00000000000000000000001300000000
#07412:1200000000000000002c000000000000
#07418:00000000000000230000000000000000
#07414:0028
#07317:0014000000000000
#07314:0000000000130000
#06816:130000000000000000000000000000000000000000000000000000000000000000000000000000000000000000000000000000000000000000000000000000000000000000000000000000000000000000000000000000000000000000000000000000000000000000000000000000000000000000000000000000000000000000000000000000000000000000000000000000000000000000000000000000000000000000000000000000000000000000000000000000000000000000000000000000000000000000000000000000000000000000000000000000000000000000000000000000000000000000000000000000000000000000000000000000000000000000000000000000000000000000000000000000000000000000000000000000000000000000000000000000000000000000000000000000000000000000000000000000000000000000000000000000000000000000000000000000000000000000000000000000000000000000000000000000000000000000000000000000000000000000000000000000000000000000000000000000000000000000000000000000000000000000000000000000000000000000000000000000000000000000000000000000000000000000000000000000000000000000000000130000000000000000000000000000000000000000000000000000000000000000000000000000000000000000000000000000000000000000000000000000000000000000000000000000000000000000000000000000000000000000000000000000000000000000000000000000000000000000000000000000000000000000000000000000000000000000000000000000000000000000000000000000000000000000000000000000000000000000000000000000000000000000000000000000000000000000000000000000000000000000000000000000000000000000000000000000000000000000000000000000000000000000000000000000000000000000000000000000000000000000000000000000000000000000000000000000000000000000000000000000000000000000000000000000000000000000000000000000000000000000000000000000000000000000000000000000000000000000000000000000000000000000000000000000000000000000000000000000000000000000000000000000000000000000000000000000000000000000000000000000000000000000000000000000000000000000000000000000000000000000000000000000000000000000000000000000000000000000000000130000000000000000000000000000000000000000000000000000000000000000000000000000000000000000000000000000000000000000000000000000000000000000000000000000000000000000000000000000000000000000000000000000000000000000000000000000000000000000000000000000000000000000000000000000000000000000000000000000000000000000000000000000000000000000000000000000000000000000000000000000000000000000000000000000000000000000000000000000000000000000000000000000000000000000000000000000000000000000000000000000000000000000000000000000000000000000000000000000000000000000000000000000000000000000000000000000000000000000000000000000000000000000000000000000000000000000000000000000000000000000000000000000000000000000000000000000000000000000000000000000000000000000000000000000000000000000000000000000000000000000000000000000000000000000000000000000000000000000000000000000000000000000000000000000000000000000000000000000000000000000000000000000000000000000000000000000000000000000000000000000000000000000000000000000000000000000000000000000000000000000000000000000000000000000000000000000000000000000000000000000000000000000000000000000000000000000000000000000000000000000000000000000000000000000000000000000000000000000000000000000000000000000000000000000000000000000000000000000000000000000000000000000000000000000000000000000000000000000000000000000000000000000000000000000000000000000000000000000000000000000000000000000000000000000000000000000000000000000000000001300000000000000000000000000000000000000000000000000000000000000000000000000000000000000000000000000000000000000000000000000000000000000000000000000000000000000000000000000000000000000000000000000000000000000000000000000000000000000000000000000000000000000000000000000000000000000000000000000000000000000000000000000000000000000000000000000000000000000000000000000000000000000000000000000000000000000000000000000000000000000000000000000000000000000000000000000000000000000000000
#06812:0013001300001300
#0681b:13001313
#06817:0013000000130013
#02917:1300000000130000
#0291b:0013000013001300
#02912:1300130000130000
#02916:0013000013000000
#01117:1212000000000000
#01116:0000141400000000
#01115:0000000016160000
#01114:00000018
#01113:000000000000001a
#04912:13000013
#0491b:00131300
#04917:00130000
#04916:00000013
#03912:13
#03917:0013
#03919:0012000000000012
#0391a:0000001200001200
#0391b:0000120000120000
#0391c:2212
#04712:00131313
#0471b:13131313
#04716:0014001400140014
#0461b:0000000000000013
#04612:0000000000130000
#04616:0013000000000000
#04617:0000001300000000
#06612:14
#0661a:14
#06614:0014
#06116:2814000024140014
#06116:0000000000000014
#0611a:0014140000141400
#06112:1400001414000000
#05912:00131415
#05915:0000001300140000
#05916:0000240000000015
#0591a:00000024
#05918:0024
#06016:0014000024141400
#06012:2814140000140000
#0601a:1400001414000014
#05216:2814000024141400
#0521a:0014140000140000
#05212:1400001414000014
#0521f:21
#05316:0014000024140014
#05312:2814140000141400
#0531a:1400001414000000
#05310:41
#0481b:13130013
#04812:1313
#04816:0013000000130000
#04817:0000001300000013
#06512:00140014
#06516:0000001300000013
#0651a:0014
#06517:0000000000130000
#01615:00000000000000130000130000001300
#01612:2c160013
#01618:0013001313001600
#0161b:00130000
#0171b:0013001300000000
#01712:1300160000130013
#01718:13131316
#01715:00000000000000130000000013000000
#02016:00131313
#02012:0013
#0201b:00130013
#02017:23
#02010:41
#0211b:00130013
#02117:00131300
#02112:1313
#04517:0000130000130000
#0451b:0013
#04516:0000001300000013
#04512:00130013
#05414:00000013
#05412:1400001300000000
#05416:0000140013140013
#0541b:13
#05417:0013000000000000
#0541a:0000001400000014
#05418:00000014
#05519:0000000000000013
#05514:1214000026000013
#05516:0000261400000000
#05518:2600000000140000
#0551a:00000012
#05512:00120026
#0551c:0012
#06314:0000260000141213
#06319:0000000000000013
#0631a:12
#06316:0000001426000000
#0631c:00120000
#06312:2612
#06318:0014000000002600
#06212:1300001400000014
#06214:00000014
#06216:0013140000140000
#06217:0000000013000013
#06219:00000013
#0621b:0000001300000000
#0621a:14
#04115:1300001313001300
#04112:0000130000130000
#0411b:0013000000001300
#04118:1300130000000013
#00417:22
#0041a:0022
#00519:22
#00517:0000000022000022
#0061b:2200002200220000
#0061c:00220000
#0061a:00000022
#00619:0000000000000022
#00717:2200000000000022
#0091b:22
#00919:0022
#0101b:22
#05112:2c
#00817:22
#0081a:0022
#0705a:14000014
#07052:0000001400000000
#07056:0000000000000014
#01458:00160000
#01452:00000016
#01252:1c000016
#01258:00160000
#02252:53
#02457:0063
#02452:13530053
#0245b:13
#02556:00530000
#0255b:6363
#02552:00000053
#0565b:6300430000230000
#05656:6300430000230000
#05657:0023000053003300
#05652:0023000053003300
#05856:0000004400000063
#05854:0000000000340000
#0585a:0000000000000044
#07452:2200000000000000004c000000000000
#07156:0044
#07154:00000034
#0725a:44
#07252:58
#0355c:0000000000220000
#03552:0000000000220000
#0325b:0000002300000000
#03252:1300000000230000
#03356:0000000000630000
#03357:0000005300000000
#05152:1c
#07357:0024000000000000
#07354:0000000000630000
#06452:53000053
#06456:0023000000000023
#0645b:0000006300006300
#06457:000000000000000000000000000000000000000000000000000000000000000000000000000000000000000000000000000000000000000000000000000000000000000000000000000000000000000000000000000000000000000000000000000000000000000000000000000000000000000000000000000000000000000000000000000000000000000000000000000000000000000000000000000000000000000000000000000000000000000000000000000000000000000000000000000000000000000000000000000000000000000000000000000000000000000000000000000000000000000000000000000000000000000000000000000000000000000000000000000000000000000000000000000000000000000000000000000000000000000000000000000000000000000000000000000000000000000000000000000000000000000000000000000000000000000000000000000000000000000000000000000000000000000000000000000000000000000000000000000000000000000000000000000000000000000000000000000000000000000000000000000000000000000000000000000000000000000000000000000000000000000000000000000000000000000000000000000000000000000000000000000000000000000000000000000000000000000000000000000000000000000000000000000000000000000000000000000000000000000000000000000000000000000000000000000000000000000000000000000000000000000000000000000000000000000000000000000000000000000000000000000000000000000000000000000000000000000000000000000000000000000000000000000000000000000000000000000000000000000000000000000000000000000000000000000000000000000000000000000000000000000000000000000000000000000000000000000000000000000000000000000000000000000000000000000000000000000000000000000000000000000000000000000000000000000000000000000000000000000000000000000000000000000000000000000000000000000000000000000000000000000000000000000000000000000000000000000000000000000000000000000000000000000000000000000000000000000000000000000000000000000000000000000000000000000000000000000000000000000000000000000000000000000000000000000000000000000000000000000000000000000000000000000000000000000000000000000000000000000000000000230000000000000000000000000000000000000000000000000000000000000000000000000000000000000000000000000000000000000000000000000000000000000000000000000000000000000000000000000000000000000000000000000000000000000000000000000000000000000000000000000000000000000000000000000000000000000000000000000000000000000000000000000000000000000000000000000000000000000000000000000000000000000000000000000000000000000000000000000000000000000000000000000000000000000000000000000000000000000000000000000000000000000000000000000000000000000000000000000000000000000000000000000000000000000000000000000000000000000000000000000000000000000000000000000000000000000000000000000000000000000000000000000000000000000000000000000000000000000000000000000000000000000000000000000000000000000000000000000000000000000000000000000000000000000000000000000000000000000000000000000000000000000000000000000000000000000000000000000000000000000000000000000000000000000000000000000000000000000000000000000000000000000000000000000000000000000000000000000000000000000000000000000000000000000000000000000000000000000000000000000000000000000000000000000000000000000000000000000000000000000000000000000000000000000000000000000000000000000000000000000000000000000000000000000000000000000000000000000000000000000000000000000000000000000000000000000000000000000000000000000000000000000000000000000000000000000000000000000000000000000000000000000000000000000000000000000000000000000000000000002300000000000000000000000000000000000000000000000000000000000000000000000000000000000000000000000000000000000000000000000000000000000000000000000000000000000000000000000000000000000000000000000000000000000000000000000000000000000000000000000000000000000000000000000000000000000000000000000000000000000000000000000000000000000000000000000000000000000000000000000000000000000000000000000000000000000000000000000000000000000000000000000000000000000000000000000000000000000000000000
#0685b:63000063
#06857:0023000000000023
#06852:0000005300005300
#06856:000000000000000000000000000000000000000000000000000000000000000000000000000000000000000000000000000000000000000000000000000000000000000000000000000000000000000000000000000000000000000000000000000000000000000000000000000000000000000000000000000000000000000000000000000000000000000000000000000000000000000000000000000000000000000000000000000000000000000000000000000000000000000000000000000000000000000000000000000000000000000000000000000000000000000000000000000000000000000000000000000000000000000000000000000000000000000000000000000000000000000000000000000000000000000000000000000000000000000000000000000000000000000000000000000000000000000000000000000000000000000000000000000000000000000000000000000000000000000000000000000000000000000000000000000000000000000000000000000000000000000000000000000000000000000000000000000000000000000000000000000000000000000000000000000000000000000000000000000000000000000000000000000000000000000000000000000000000000000000000000000000000000000000000000000000000000000000000000000000000000000000000000000000000000000000000000000000000000000000000000000000000000000000000000000000000000000000000000000000000000000000000000000000000000000000000000000000000000000000000000000000000000000000000000000000000000000000000000000000000000000000000000000000000000000000000000000000000000000000000000000000000000000000000000000000000000000000000000000000000000000000000000000000000000000000000000000000000000000000000000000000000000000000000000000000000000000000000000000000000000000000000000000000000000000000000000000000000000000000000000000000000000000000000000000000000000000000000000000000000000000000000000000000000000000000000000000000000000000000000000000000000000000000000000000000000000000000000000000000000000000000000000000000000000000000000000000000000000000000000000000000000000000000000000000000000000000000000000000000000000000000000000000000000000000000000000000000000000000000000000230000000000000000000000000000000000000000000000000000000000000000000000000000000000000000000000000000000000000000000000000000000000000000000000000000000000000000000000000000000000000000000000000000000000000000000000000000000000000000000000000000000000000000000000000000000000000000000000000000000000000000000000000000000000000000000000000000000000000000000000000000000000000000000000000000000000000000000000000000000000000000000000000000000000000000000000000000000000000000000000000000000000000000000000000000000000000000000000000000000000000000000000000000000000000000000000000000000000000000000000000000000000000000000000000000000000000000000000000000000000000000000000000000000000000000000000000000000000000000000000000000000000000000000000000000000000000000000000000000000000000000000000000000000000000000000000000000000000000000000000000000000000000000000000000000000000000000000000000000000000000000000000000000000000000000000000000000000000000000000000000000000000000000000000000000000000000000000000000000000000000000000000000000000000000000000000000000000000000000000000000000000000000000000000000000000000000000000000000000000000000000000000000000000000000000000000000000000000000000000000000000000000000000000000000000000000000000000000000000000000000000000000000000000000000000000000000000000000000000000000000000000000000000000000000000000000000000000000000000000000000000000000000000000000000000000000000000000000000000000000002300000000000000000000000000000000000000000000000000000000000000000000000000000000000000000000000000000000000000000000000000000000000000000000000000000000000000000000000000000000000000000000000000000000000000000000000000000000000000000000000000000000000000000000000000000000000000000000000000000000000000000000000000000000000000000000000000000000000000000000000000000000000000000000000000000000000000000000000000000000000000000000000000000000000000000000000000000000000000000000
#0235b:63
#02357:0023000000000000
#02352:0053
#02356:0000000000230000
#02752:53
#02756:0023000000000000
#0275b:0063
#02757:0000000000230000
#0285b:13630063
#02852:1353
#02957:5300330000230000
#0295b:0023000063006300
#02952:5300530000230000
#02956:0023000063004300
#03052:53
#03056:0023000000000000
#0305b:0063
#03057:0000000000230000
#0365b:63
#03657:00230000
#03652:0053
#03656:00000023
#03757:53
#0375b:0023000000000000
#03756:0063
#03752:0000000000230000
#03857:53
#0385b:0023000000000000
#03856:0063
#03852:0000000000230000
#03952:53
#03957:0023
#06952:33
#0695b:43
#06552:33
#0655b:43
#04457:5300000000000023
#0445b:0023000000006300
#04456:00006363
#04452:0000000000230023
#04556:4300002300000023
#0455b:4363
#04557:0000000000230000
#04552:00530053
#04752:00130013
#0475b:1313
#06652:14
#0665a:64
#06654:0024
#01358:00160000
#01352:00000016
#05952:00535455
#05955:0000002300240000
#05956:0000000000000025
#06056:0024000034246400
#06052:38540000
#0605a:64446444
#06156:4824000044240000
#06152:54345434
#0615a:00640000
#05256:4824000044245400
#05252:54345434
#0525a:00640000
#05356:0024000034240000
#0535a:64446444
#05352:38540000
#0505b:43
#04952:5333
#04957:00230000
#0495b:4363
#04956:00000023
#04852:5353
#04856:0023000000230000
#0485b:00630063
#04857:0000002300000023
#03156:13
#03154:0000001300000000
#0345b:1313
#03452:00130013
#01652:1c160000
#01658:00000016
#01752:00160000
#01758:00000016
#02056:0053
#0205b:00630063
#02057:13
#02157:00630000
#02152:5353
#0215b:00000063
#04056:0063
#04057:53
#0575b:6300430000230000
#05756:6300430000230000
#05757:0023000053003300
#05752:0023000053003300
#04352:53
#05452:1400005300000000
#0545b:63
#05457:0023000000000000
#0545a:0000001400000000
#05456:0023
#06257:0023
#0625b:0000006300000000
#06252:5300001400000000
#06256:0023000000000000
#0625a:14
#0415b:0023000000000000
#04158:5300630000000023
#04155:0000002363005300
#04152:0000000000230000
#004330:1222
#005350:1222
#006340:1200000000220000
#007320:1222
#008340:1222
#009360:1222
#010330:12
#011330:22
#019360:0013
#019350:00000000000000000033000000000000
#019340:0000000000330000
#019330:00000000000000000000003300000000
#019320:00000000000000000000000033333333
#020320:23
#0203b0:00130033
#020360:0033
#021360:23
#021321:1333
#021371:00330023
#0213b0:00000013
#022370:23
#022321:13
#022361:00230000
#0223b0:00130000
#022370:0000002300000000
#022321:0000001323000000
#0233b1:13230000
#023371:0053000000000000
#023321:00001323
#023361:0000000000530000
#024321:00130033
#024371:0033
#025371:23
#0253b0:1333
#025360:00330023
#025321:00000013
#026361:23
#027321:13230000
#027361:0053000000000000
#0273b1:00001323
#027371:0000000000530000
#0283b1:00130000
#028371:0023
#028320:0013
#028360:00000023
#0283b1:00000013
#029371:33230000
#0293b1:0053000000000000
#029320:1300330000530000
#029360:0053000033002300
#0293b1:00001333
#029371:0000000000530000
#030371:23
#030320:13230000
#030360:0053000000000000
#0303b0:00001323
#030370:0000000000530000
#0313b0:13230000
#031390:0000001300230000
#032370:13230000
#0323b0:0000001300000000
#032370:0000000000230000
#032321:0000000000130000
#032361:0000000000000023
#033371:0000001300000000
#0333b1:0000000000230000
#033360:0000000000130000
#033320:0000000000000023
#0333b1:0000000000000013
#0343b1:23
#034321:0013230000000000
#0343b1:0000001323000000
#034321:0000000000132300
#0343b1:0000000000000013
#0353b1:23
#0353c1:0000000012520000
#035381:00000022
#035320:0000000012520000
#035360:00000022
#0363b0:1323
#036370:00530000
#036321:0013
#036361:00000053
#037321:23
#037370:13230000
#0373b0:0053000000000000
#037360:00001323
#037320:0000000000530000
#038370:13230000
#0383b0:0053000000000000
#038360:00001323
#038320:0000000000530000
#039320:13
#039370:0053
#040320:23
#040371:13
#0403b1:00230000
#040361:0013
#040321:00000023
#041381:13332300
#0413b1:0053000000000000
#041351:0000005300000000
#041350:00001333
#041320:0000000000530000
#041380:0000000000000053
#042350:23
#043320:13
#043360:00230000
#044370:13230000
#0443b0:0053000000000000
#044360:00001333
#044320:0000000000530053
#045360:23
#0443b1:00000013
#044371:0000000000000053
#0453b1:23
#045321:00132300
#045361:0000003300000000
#0453b0:00001323
#045370:0000000000330000
#045321:00000013
#045361:0000000000000033
#046321:23
#046370:13
#0463b0:0033000000000000
#046380:00230000
#046351:00130000
#046321:0000003300000000
#046361:0023
#0463b0:00001323
#046370:0000000000330000
#046321:00000013
#046361:0000000000000033
#047321:23
#048321:13230000
#048361:0033000000000000
#0483b0:00132300
#048370:0000003300000000
#048321:00001323
#048361:0000000000330000
#0483b0:00000013
#048370:0000000000000033
#0493b0:23
#049321:1323
#049371:00530000
#0493b0:0013
#049360:00000053
#0503b0:23
#052320:14240000
#052360:0054000000000000
#0523a1:00140000
#052361:0024
#052320:00001424
#052360:0000000000540000
#052361:00000014
#0533a1:34240000
#053361:0054000000000000
#053320:00140000
#053360:0024
#0533a1:00001424
#053361:0000000000540000
#0543b1:13230000
#054371:0053000000000000
#054321:0000001300230000
#054361:0053
#0563b1:13230000
#056371:0033000000000000
#056360:13230000
#056320:0033000000000000
#056320:00001323
#056360:0000000000330000
#056371:00001323
#0563b1:0000000000330000
#0573b1:13230000
#057371:0033000000000000
#057360:13230000
#057320:0033000000000000
#057320:00001323
#057360:0000000000330000
#057371:00001323
#0573b1:0000000000330000
#0583b1:1323000000000000
#058321:0000132300000000
#058361:0000000000000013
#059321:00333435
#059351:0000005300540000
#059361:0000000000000055
#060321:28
#0603a0:14240000
#060360:0054000000000000
#060321:00140000
#060361:0024
#0603a0:00001424
#060360:0000000000540000
#060361:00000014
#061321:34240000
#061361:0054000000000000
#0613a0:00140000
#061360:0024
#061321:00001424
#061361:0000000000540000
#062321:13230000
#062361:0053000000000000
#0623b1:0000001300230000
#062371:0053
#064321:1300332300000000
#064361:0053000000000000
#0643b0:0000001300333300
#064370:000000000000000000000000000000000000000000000000000000000000000000000000000000000000000000000000000000000000000000000000000000000000000000000000000000000000000000000000000000000000000000000000000000000000000000000000000000000000000000000000000000000000000000000000000000000000000000000000000000000000000000000000000000000000000000000000000000000000000000000000000000000000000000000000000000000000000000000000000000000000000000000000000000000000000000000000000000000000000000000000000000000000000000000000000000000000000000000000000000000000000000000000000000000000000000000000000000000000000000000000000000000000000000000000000000000000000000000000000000000000000000000000000000000000000000000000000000000000000000000000000000000000000000000000000000000000000000000000000000000000000000000000000000000000000000000000000000000000000000000000000000000000000000000000000000000000000000000000000000000000000000000000000000000000000000000000000000000000000000000000000000000000000000000000000000000000000000000000000000000000000000000000000000000000000000000000000000000000000000000000000000000000000000000000000000000000000000000000000000000000000000000000000000000000000000000000000000000000000000000000000000000000000000000000000000000000000000000000000000000000000000000000000000000000000000000000000000000000000000000000000000000000000000000000000000000000000000000000000000000000000000000000000000000000000000000000000000000000000000000000000000000000000000000000000000000000000000000000000000000000000000000000000000000000000000000000000000000000000000000000000000000000000000000000000000000000000000000000000000000000000000000000000000000000000000000000000000000000000000000000000000000000000000000000000000000000000000000000000000000000000000000000000000000000000000000000000000000000000000000000000000000000000000000000000000000000000000000000000000000000000000000000000000000000000000000000000000000000000000000000530000000000000000000000000000000000000000000000000000000000000000000000000000000000000000000000000000000000000000000000000000000000000000000000000000000000000000000000000000000000000000000000000000000000000000000000000000000000000000000000000000000000000000000000000000000000000000000000000000000000000000000000000000000000000000000000000000000000000000000000000000000000000000000000000000000000000000000000000000000000000000000000000000000000000000000000000000000000000000000000000000000000000000000000000000000000000000000000000000000000000000000000000000000000000000000000000000000000000000000000000000000000000000000000000000000000000000000000000000000000000000000000000000000000000000000000000000000000000000000000000000000000000000000000000000000000000000000000000000000000000000000000000000000000000000000000000000000000000000000000000000000000000000000000000000000000000000000000000000000000000000000000000000000000000000000000000000000000000000000000000000000000000000000000000000000000000000000000000000000000000000000000000000000000000000000000000000000000000000000000000000000000000000000000000000000000000000000000000000000000000000000000000000000000000000000000000000000000000000000000000000000000000000000000000000000000000000000000000000000000000000000000000000000000000000000000000000000000000000000000000000000000000000000000000000000000000000000000000000000000000000000000000000000000000000000000000000000000000000000000005300000000000000000000000000000000000000000000000000000000000000000000000000000000000000000000000000000000000000000000000000000000000000000000000000000000000000000000000000000000000000000000000000000000000000000000000000000000000000000000000000000000000000000000000000000000000000000000000000000000000000000000000000000000000000000000000000000000000000000000000000000000000000000000000000000000000000000000000000000000000000000000000000000000000000000000000000000000000000000000
#0653b0:23
#064321:00000013
#064361:0000000000000053
#065321:23
#0653b1:0000132300000000
#065321:0000000013230000
#0653b1:0000000000001323
#0663a1:14
#066341:0054
#0673a1:24
#067320:13000053230000000000000000000000
#067360:00533300000000000000000000000000
#0673b1:00000000130000532300000000000000
#067371:00000000005333000000000000000000
#067360:00000000000000001300005323000000
#067320:00000000000000000053330000000000
#0683b0:1300332300000000
#068370:0053000000000000
#068321:0000001300333300
#068361:000000000000000000000000000000000000000000000000000000000000000000000000000000000000000000000000000000000000000000000000000000000000000000000000000000000000000000000000000000000000000000000000000000000000000000000000000000000000000000000000000000000000000000000000000000000000000000000000000000000000000000000000000000000000000000000000000000000000000000000000000000000000000000000000000000000000000000000000000000000000000000000000000000000000000000000000000000000000000000000000000000000000000000000000000000000000000000000000000000000000000000000000000000000000000000000000000000000000000000000000000000000000000000000000000000000000000000000000000000000000000000000000000000000000000000000000000000000000000000000000000000000000000000000000000000000000000000000000000000000000000000000000000000000000000000000000000000000000000000000000000000000000000000000000000000000000000000000000000000000000000000000000000000000000000000000000000000000000000000000000000000000000000000000000000000000000000000000000000000000000000000000000000000000000000000000000000000000000000000000000000000000000000000000000000000000000000000000000000000000000000000000000000000000000000000000000000000000000000000000000000000000000000000000000000000000000000000000000000000000000000000000000000000000000000000000000000000000000000000000000000000000000000000000000000000000000000000000000000000000000000000000000000000000000000000000000000000000000000000000000000000000000000000000000000000000000000000000000000000000000000000000000000000000000000000000000000000000000000000000000000000000000000000000000000000000000000000000000000000000000000000000000000000000000000000000000000000000000000000000000000000000000000000000000000000000000000000000000000000000000000000000000000000000000000000000000000000000000000000000000000000000000000000000000000000000000000000000000000000000000000000000000000000000000000000000000000000000000000000000000530000000000000000000000000000000000000000000000000000000000000000000000000000000000000000000000000000000000000000000000000000000000000000000000000000000000000000000000000000000000000000000000000000000000000000000000000000000000000000000000000000000000000000000000000000000000000000000000000000000000000000000000000000000000000000000000000000000000000000000000000000000000000000000000000000000000000000000000000000000000000000000000000000000000000000000000000000000000000000000000000000000000000000000000000000000000000000000000000000000000000000000000000000000000000000000000000000000000000000000000000000000000000000000000000000000000000000000000000000000000000000000000000000000000000000000000000000000000000000000000000000000000000000000000000000000000000000000000000000000000000000000000000000000000000000000000000000000000000000000000000000000000000000000000000000000000000000000000000000000000000000000000000000000000000000000000000000000000000000000000000000000000000000000000000000000000000000000000000000000000000000000000000000000000000000000000000000000000000000000000000000000000000000000000000000000000000000000000000000000000000000000000000000000000000000000000000000000000000000000000000000000000000000000000000000000000000000000000000000000000000000000000000000000000000000000000000000000000000000000000000000000000000000000000000000000000000000000000000000000000000000000000000000000000000000000000000000000000000000000000005300000000000000000000000000000000000000000000000000000000000000000000000000000000000000000000000000000000000000000000000000000000000000000000000000000000000000000000000000000000000000000000000000000000000000000000000000000000000000000000000000000000000000000000000000000000000000000000000000000000000000000000000000000000000000000000000000000000000000000000000000000000000000000000000000000000000000000000000000000000000000000000000000000000000000000000000000000000000000000000
#069321:23
#0683b0:00000013
#068370:0000000000000053
#0693b0:23
#069320:0000001300000000
#069360:00000000000000530000230000000000
#0693b1:0000000000130000
#069371:00000000000000000000005300002300
#072321:18
#073371:0054000000000000
#073341:0000000000530000
#074321:52
#074351:00000000000000230000000000000000
