This file was generated by Ched 2.6.4.0.
#TITLE ""
#ARTIST ""
#DESIGNER ""
#DIFFICULTY 0
#PLAYLEVEL
#SONGID ""
#WAVE ""
#WAVEOFFSET 0
#JACKET ""
#REQUEST "ticks_per_beat 480"
#00002: 4
#BPM01: 165
#BPM02: 140
#01008: 01
#00008: 02
#TIL00: ""
#HISPEED 00
#MEASUREHS 00
#05818:1400000000000014
#0581a:00340000
#05412:14
#05414:0000340000000014
#06312:00000014
#06418:14
#06412:00140000
#0641a:0014
#06414:00000014
#06410:41
#0651a:14
#06514:00140000
#06518:0014
#06512:00000014
#06712:00000014
#0681a:14
#06814:00140000
#06818:0014
#06812:00000014
#06918:14
#06912:00140000
#0691a:0014
#06914:00000014
#05314:00140000
#05318:00140000
#05312:24
#0531a:24
#05310:41
#06114:00140000
#06118:00140000
#06112:24
#0611a:24
#06618:14
#0661a:0014
#0701a:14
#00418:14
#00514:14
#00618:14
#0621a:14
#06218:0000340000000014
#0591a:00000014000000000000000000000000
#00814:14
#00918:14
#01514:1414
#01518:00140014
#01814:1414
#01818:00140014
#01912:14
#0191a:00140000
#01914:0014
#01918:00000014
#02012:1414
#02018:00140014
#02010:41
#02114:1414
#0211a:00140014
#02414:1414
#0241a:00140014
#02512:1414
#02518:00140014
#02814:14
#02818:00140000
#02812:0014
#0281a:00000014
#02810:41
#02914:14
#02918:00140000
#02912:0014
#0291a:00000014
#02212:14
#0231a:14
#02614:14
#02718:14
#03012:14
#03212:0014
#03318:00140014
#03314:0014
#0451a:00000014
#04514:0014
#04518:00140000
#04512:14
#0441a:00000014
#04418:00140000
#04414:0014
#04412:14
#0441f:11
#05015:0014
#05012:14
#04914:0014
#04912:14
#04818:00000014
#04814:0014
#0481a:00140000
#04812:14
#0421a:0014
#04218:14
#03812:00000014
#03818:0014
#03814:00140000
#0381a:14
#03712:00000014
#03714:00140000
#03718:0014
#0341a:00140014
#03412:1414
#03512:14
#0311a:14
#03119:0000003400000000
#07114:0014
#07118:00000014
#0521a:2424
#05212:2424
#0521f:21
#06012:2424
#0601a:2424
#07413:00000000000000000024000000000000
#01210:41
#03610:41
#05858:5400000000000054
#05452:54
#05454:0000000000000064
#05352:54
#05354:00240000
#05358:00240000
#0535a:64
#06154:00240000
#06152:54
#06158:00240000
#0615a:64
#06658:54
#0665a:0024
#0705a:64
#0625a:64
#06258:0000000000000054
#0595a:00000024000000000000000000000000
#02252:54
#0235a:64
#02654:64
#02758:54
#03052:54
#03252:0054
#05055:0024
#05052:54
#04954:0064
#04952:54
#0425a:0024
#04258:54
#03552:54
#0315a:64
#05152:14
#07453:00000000000000000014000000000000
#010340:14
#011340:34343424
#0123a0:14
#012380:0024
#013320:14
#013340:0024
#0143a0:14
#014380:0024
#016340:14
#016320:0024
#017380:14
#0173a0:0024
#022320:14
#022340:0024
#0233a0:14
#023380:0024
#026340:14
#026320:0024
#027380:14
#0273a0:0024
#030320:14
#030340:0024
#0313a0:14
#031390:0000003400000000
#032380:24
#032320:0014
#033340:24
#035320:14
#035340:0024
#0363a0:14
#036380:0034
#0373a0:24
#0393a0:14
#039380:0024
#040340:14
#040330:00340000
#040320:0024
#041380:14
#041390:00340034
#0413a0:0034
#042380:34
#0423a0:0054
#043380:24
#046320:14
#046340:0024
#047380:14
#0473a0:0024
#049320:14
#049340:0034
#050320:34
#050350:0054
#051320:24
#0533a0:1424
#053380:00540000
#053321:1424
#053341:00540000
#054321:14
#054341:0000343400343434
#055321:0024
#056381:14240000
#056341:00001424
#0573a1:14240000
#057321:00001424
#058381:1400000000000034
#0583a1:0000343400000000
#058391:0000000000340000
#0593a1:00000054000000000000000000000000
#059381:0024
#061321:1424
#061341:00540000
#0613a0:1424
#061380:00540000
#0623a0:14
#062380:0000343400343434
#0633a0:0024
#066380:14
#0663a0:0054
#067380:24
#0703a0:14
#070380:00000024
#072320:16
#074330:00000000000000000024000000000000
