This file was generated by Ched 2.6.4.0.
#TITLE ""
#ARTIST ""
#DESIGNER ""
#DIFFICULTY 0
#PLAYLEVEL
#SONGID ""
#WAVE ""
#WAVEOFFSET 0
#JACKET ""
#REQUEST "ticks_per_beat 480"
#00002: 4
#BPM01: 109
#00008: 01
#TIL00: ""
#HISPEED 00
#MEASUREHS 00
#00018:14
#00214:14
#00818:14
#00914:14
#01018:14
#01512:14
#02018:2616
#02010:41
#03418:14
#03314:14
#02218:1616
#02418:2616
#02512:1616
#02518:00160016
#02612:1616
#03012:16
#03018:0016
#03112:16
#03218:14
#03514:14
#00118:14
#00314:14
#0041a:14
#00410:41
#00612:14
#0051a:14
#00712:14
#01114:14
#0121a:14
#01210:41
#01312:14
#0141a:14
#02112:1616
#02118:00160000
#02812:1616
#02810:41
#02918:1616
#03712:14
#0361a:14
#0381a:14
#04714:14
#0471f:11
#04818:14
#04912:14
#0501a:14
#05114:14
#05218:14
#05312:14
#0541a:14
#05512:2616
#0551f:21
#05712:1616
#05912:2616
#06018:1616
#06012:00160016
#06118:1616
#06518:16
#06512:0016
#05618:1616
#05612:00160000
#05610:41
#06318:1616
#06412:1616
#03910:41
#016380:14
#017380:24
#018340:14
#019340:24
#023320:16362600
#027380:16362600
#039320:14
#040320:24
#041380:14
#042380:24
#043340:14
#044340:24
#0453a0:14
#0463a0:24
#058380:16362600
#062320:16362600
#065380:00000016
#066380:00360000
#067380:000000360000000000000000003600000000000000000000
#0703a0:24
