This file was generated by Ched 2.6.4.0.
#TITLE ""
#ARTIST ""
#DESIGNER ""
#DIFFICULTY 0
#PLAYLEVEL
#SONGID ""
#WAVE ""
#WAVEOFFSET 0
#JACKET ""
#REQUEST "ticks_per_beat 480"
#00002: 4
#BPM01: 109
#00008: 01
#TIL00: ""
#HISPEED 00
#MEASUREHS 00
#00918:000000000000000013000000000000000013000000130000
#00912:00130013
#00915:000000000000000000130000000013000000000000000000
#0131b:00131313
#01312:000000001300001300000000
#01318:0000001300130000
#01315:000000000000000000000013000000000013000000130000
#0111b:000000000000000000000000000000000000000000000013
#01115:13
#01112:00000013
#06218:000000130000000000000000000000000013000000000013
#06216:000000000000001300000000
#06212:130000000000000000000013000000000000130000000000
#0621b:130000130000000000001300
#06215:0000130000000013
#02715:000000130000000000000000000000000013000000000013
#02717:000000000000001300000000
#0271b:130000000000000000000013000000000000130000000000
#02712:130000130000000000001300
#02718:0000130000000013
#01812:000000000000000013000000000000130000000013000000
#0181b:0013000000000000
#01815:000000000013000000000013000000000000000000000000
#01818:0000001300000000
#00014:001300
#00019:00130000
#00016:000000000013000000000000000000000000000000000000
#0001b:2313000000000000
#00012:23
#00112:13
#0011b:001300
#00115:0013130000000000
#00118:000000000013000000000000000000000000000000000000
#02916:000000000013000000130000000000000000000000000000
#0291b:000000000000000000000013000000000000130000000000
#02918:0000000000130013
#02912:000000000000000000000000000013000000000000000013
#02915:000000000000000000000000000000000013000000000000
#06518:0013001300000000
#06512:000013000000000013000013000000000000000000000000
#0651b:0000000000130000
#06515:000000000013000000000000000000000000000000000000
#06516:0000000000002424
#06415:0000000000130013
#06412:000000000000130000000013000000000000130000000000
#0641b:000000000000000000000000000013000000000000000013
#06418:000000000000000000000000000000000013000000000000
#0631b:000000000000130000000000000000000000000000000013
#06316:000000000000000000000000000000000000000013000013
#06312:000000001300000000130000
#06318:000000000000000000130000000000000013000000000000
#06315:000000000013000000000013000000000000000000000000
#02516:000000000013000000000000000000000000000000000000
#02518:000000000000000000000000000000000000000000000013
#02512:0000000000001313
#02515:000000000000000000000013000000000000000000000000
#0251b:000000130000000013000000000000000000000000000000
#02517:000000000013
#00315:000000130000000000000000000000000000003300000000
#00318:000000000013000000000000000000000000000000000000
#00312:000000000000000000000023000000130000000000003333
#0031b:000000000000000000000023000000000000000000000000
#00314:000000000033
#00313:0000000000000033
#00718:0013000000000013
#00715:000000000013000000000000000000000000000013000013
#00712:000000000000000000000023000000000000130000000000
#0071b:000000000000000000000023000000000000130000000000
#03015:0013001300000000
#0301b:000013000000000013000013000000000000130000130000
#03016:0000000000001313
#03012:0000000000130000
#03018:000000000013000000000000000000000000000000000000
#04615:1300001300000000
#04618:0013130000000000
#04612:0013
#0461b:0013
#04218:1300001300130000
#04215:0013130000001300
#04212:0000000000000013
#0421b:0013
#0581b:000000000000130000130013000000000000000013000000
#05816:000000000000130000130013000000000000000000000000
#05814:0013000000000000
#05819:0013000000000000
#05812:13000013
#05817:13
#05818:000000000000000000000000000000000013000000000023
#05815:0000000000000013
#01518:131300
#01519:0000000000000013
#01514:0000000000000013
#0151b:0013000000001300
#01516:00000013
#01512:1300130000130000
#01515:0000001300000000
#02312:000000000000130000130013000000000000000013000000
#02317:000000000000130000130013000000000000000000000000
#02319:0013000000000000
#02314:0013000000000000
#0231b:13000013
#02316:13
#02315:000000000000000000000000000000000013000000000023
#02318:0000000000000013
#02217:000000000000000000000013000000000000130000000000
#02214:0000130000000013
#02219:0000130000000013
#02212:13000013
#02216:0013000000130000
#0221b:0013000000000000
#05716:000000000000000000000013000000000000130000000000
#05719:0000130000000013
#05714:0000130000000013
#0571b:13000013
#05717:0013000000130000
#05712:0013000000000000
#00612:130000000000000000130013000000000000130000000000
#00618:000000130000000000130000000000000013000000000000
#00615:000000000013000000000000000000130000000000000000
#0061b:00130000
#06617:00120000000000000000000000000000
#03618:0000001300000000
#03517:0013000000000000
#0351b:13230000
#03512:0013000000000000
#03516:13230000
#0341b:0000001300000000
#03417:00130000
#03412:00130000
#03416:13
#0121b:000000000013
#01212:000013000000000000130000000000000000000000000000
#01213:0033000000000000
#01210:41
#00812:000000130000000000000000000000000000000013000000
#0081b:0000001300000000
#03817:0000130000000013
#0381b:0000001300001300
#03816:1300000000130000
#03812:0013000013000000
#03716:0000000000000013
#03712:00001313
#0371b:00000013
#03717:0000000000130000
#01715:000000000000000000000013000000000000000000000000
#01718:000000000000000000140014
#01714:000000000014
#01618:000000000000000000000000000013000000000000130000
#01612:0000001300000000
#01615:0000000000130000
#01012:00131313
#01018:0000130013000013
#0101b:0013000000130000
#01015:0000001300000000
#0141b:00131313
#01415:0000130013000013
#01412:0013000000130000
#01418:0000001300000000
#06112:0000000000130000
#06116:0013
#06117:0000000000130000
#0611b:0013
#06015:000000000000000000000000000000000000000000000013
#0601b:0000000000001313
#06018:000000000000000000000013000000000000000000000000
#06012:000000130000000013000000000000000000000000000000
#06016:000000000013
#0591b:000000000000130000000000000000000000000013000013
#05915:000000000013000000000023000000000000000000130000
#05912:000000001300000000130000
#05918:000000000000000000130000000000000013000000000000
#0561b:000000130000000013000000000000000000000000000000
#05616:000000000013000000000000000000000000000000000000
#05615:000000000000000000000000000000000013000000000000
#05610:41
#05512:000000000000000000130000000000000013000000000013
#0551b:000000000013000000000000000000000000000000130000
#05518:000000000000000013000023000000000000130000000000
#05515:000000130000000000001300
#0551f:21
#02812:000000000000130000000000000000000000000000000013
#02817:000000000000000000000000000000000000000013000013
#02815:000000000000000000130000000000000013000000000000
#0281b:000000001300000000130000
#02818:000000000013000000000013000000000000000000000000
#02810:41
#0261b:0000000000130000
#02616:0000000000130000
#02612:0013
#02617:0013
#02412:000000000000130000000000000000000000000013000013
#02418:000000000013000000000023000000000000000000130000
#0241b:000000001300000000130000
#02415:000000000000000000130000000000000013000000000000
#02112:000000130000000013000000000000000000000000000000
#02117:000000000013000000000000000000000000000000000000
#02118:000000000000000000000000000000000013000000000000
#0201b:000000000000000000130000000000000013000000000013
#02012:000000000013000000000000000000000000000000130000
#02015:000000000000000013000023000000000000130000000000
#02018:000000130000000000001300
#02010:41
#04312:2300000000000013
#04313:00000013
#04314:0000000000130000
#04315:0013
#04316:0000001300000000
#05412:000000000000000000000000000000000013000000000000
#05415:000000000000000000000000000000000000000013000023
#0541b:0000000000000013
#05418:0012000000001300
#05416:12
#05419:0000121200000000
#0541a:0022
#04417:00000013
#04419:0000000000130000
#04414:0013
#04016:00000013
#04014:0000130000130000
#04012:0013
#04017:0000001300000000
#0391b:2300000000000013
#0391a:00000013
#03919:0000000000130000
#03918:0013
#03917:0000001300000000
#03910:41
#0191b:000000000000000000000000000000000013000000000000
#01918:000000130000000000000000000000000000000013000023
#01912:0000000000000013
#01915:0013000000001300
#01919:000000000033000000000000000000000000000000000000
#0191a:003300
#01914:000000000033000000000000000000000000000000000000
#01913:003300
#00512:001300
#00518:0013130000000000
#00515:000000000013000000000000000000000000000000000000
#0051b:13
#00419:001300
#00414:00130000
#00417:000000000013000000000000000000000000000000000000
#00412:0013000000000000
#0041b:23
#00410:41
#00215:000000130000000000130000000000000013000000000000
#0021b:130000000000000000130013000000000000130000000000
#00218:000000000013000000000000000000130000000000000000
#00212:00130000
#03215:0000001300000000
#04714:12
#04718:0012
#0471f:11
#04916:12
#05018:0012
#05116:12
#0511a:00121200
#05114:00000012
#05314:12
#0531a:00121200
#05316:00000012
#03117:00230000
#03112:00230000
#0105b:1300000000230000
#01055:13
#01058:0053
#01452:1300000000230000
#01458:13
#01455:0063
#0635b:000043000000000000000000000000000000000000000063
#06352:000000000000003300000000
#06356:000000000000000000000000000000000000000000000063
#06355:000000000000000000000023000000000000000000000000
#06156:00006343
#0615b:00006343
#06152:0013000000230000
#06157:0013000000230000
#0595b:000000000000000000000000000013000000000000000063
#05952:001300000000000000000000
#05955:000000000000000000000013000000000000000000000000
#05555:000000000000001300000000
#05558:000013000000000000000013000000000000000000000000
#05552:000000000000000000000000000000000000000000000053
#05658:000000000000000000000013000000000000000000000000
#05652:000000000000000000000013000000000000000000000000
#0565b:006300
#05656:000000000063000000000000000000000000000000000000
#02852:000033000000000000000000000000000000000000000053
#0285b:000000000000004300000000
#02857:000000000000000000000000000000000000000000000053
#02858:000000000000000000000023000000000000000000000000
#02657:00005333
#02652:00005333
#0265b:0013000000230000
#02656:0013000000230000
#02452:000000000000000000000000000013000000000000000053
#0245b:001300000000000000000000
#02458:000000000000000000000013000000000000000000000000
#02058:000000000000001300000000
#02055:000013000000000000000013000000000000000000000000
#0205b:000000000000000000000000000000000000000000000063
#02155:000000000000000000000013000000000000000000000000
#0215b:000000000000000000000013000000000000000000000000
#02152:005300
#02157:000000000053000000000000000000000000000000000000
#01952:000000000000000000000013000000000000000000000000
#0195b:000000000000000000000013000000000000000000000000
#01958:000000530000000000000000000000000000000000000013
#01955:0063000000000000
#06654:00180000
#06657:00220000000000000000000000000000
#0075b:000000000000000000000013000000000000000000000000
#00752:000000000000000000000013000000000000000000000000
#00755:000000000063000000000000000000000000000000000000
#00352:000000000000000000000013000000530000000000000000
#0035b:000000000000000000000013000000000000000000000000
#00358:000000000053000000000000000000000000000000000000
#03556:63430000
#0355b:63430000
#03557:0023000000000000
#03552:0023000000000000
#05858:000000000000000000000000000000000000000000000013
#05856:000000000000000000000063000000000000000000000000
#05455:000000000000000000000000000000000000000000000013
#05456:62
#02355:000000000000000000000000000000000000000000000013
#02357:000000000000000000000053000000000000000000000000
#03157:00130000
#03152:00130000
#06556:0000000000000064
#06552:000000000000000000000053000000000000000000000000
#00958:0000000000000053
#00952:00000053
#0115b:000000000000000000000000000000000000000000000063
#06256:000000000000002300000000
#06252:000000000000000000000053000000000000000000000000
#06258:000000000000000000000000000000000000000000000023
#0295b:000000000000000000000063000000000000000000000000
#02952:000000000000000000000000000000000000000000000053
#0645b:000000000000000000000000000000000000000000000063
#06452:000000000000000000000053000000000000000000000000
#02257:000000000000000000000053000000000000000000000000
#05756:000000000000000000000063000000000000000000000000
#01355:0000000000000063
#0135b:00000063
#0345b:0000002300000000
#03457:00530000
#06055:000000000000000000000000000000000000000000000063
#0605b:0000000000000063
#06058:000000000000000000000053000000000000000000000000
#06052:005300
#0305b:000000000000000000000063000000000000000000630000
#03056:0000000000000063
#02757:000000000000002300000000
#0275b:000000000000000000000063000000000000000000000000
#02755:000000000000000000000000000000000000000000000023
#02558:000000000000000000000000000000000000000000000053
#02552:0000000000000053
#02555:000000000000000000000063000000000000000000000000
#0255b:006300
#01558:53
#0155b:0023000000000000
#01252:005300000000000000000000
#04754:52
#04758:0052
#04956:62
#05058:0052
#05156:62
#0515a:0062
#05354:52
#0535a:0062
#000370:000000000000000000130023000000000000000000000000
#000321:000000000000000000000013000000000000000000000000
#000351:000000000000002300000000
#0003b0:000000000000001300000000
#000390:000000000000000000000000000000330023000000000000
#000321:000000000000000000000000000000000013000000000000
#000341:000000000000000000332300
#000390:000000000013
#000370:0000000000000033
#001370:23
#001320:000000000000000000130023000000000000000000000000
#001381:000000000000000000000013000000000000000000000000
#0013b1:000000000000002300000000
#001360:000000000000001300000000
#001340:000000000000000000000000000000330023000000000000
#001391:000000000000000000000000000000000013000000000000
#0013b1:000000000000000000332300
#001340:000000000013
#001320:0000000000000033
#002320:23
#002350:000000000000000000000013000000000000000000000000
#002320:0000000000230000
#002320:0000000000000013
#003350:23
#003381:1323000000000000
#003381:000000000013000000000000000000000000000000000000
#0033b1:000000000000000000000023000000000000000000000000
#003321:000000000000000000000000000000130000000000003333
#003361:0000000000000000000000000000000000000000000000533300000000000000
#003351:000000000000000000000000000000000000003300000000
#003341:000000000033
#003331:0000000000000033
#004321:23
#004361:000000000000000000130023000000000000000000000000
#0043b0:000000000000000000000013000000000000000000000000
#004380:000000000000002300000000
#004321:000000000000001300000000
#004341:000000000000000000000000000000330023000000000000
#0043b0:000000000000000000000000000000000013000000000000
#004390:000000000000000000332300
#004341:000000000013
#004361:0000000000000033
#005361:23
#0053b1:000000000000000000130023000000000000000000000000
#005350:000000000000000000000013000000000000000000000000
#005320:000000000000002300000000
#005371:000000000000001300000000
#005391:000000000000000000000000000000330023000000000000
#005340:000000000000000000000000000000000013000000000000
#005320:000000000000000000332300
#005391:000000000013
#0053b1:0000000000000033
#0063b1:23
#006381:000000000000000000000013000000000000000000000000
#0063b1:0000000000230000
#0063b1:0000000000000013
#007381:23
#007350:1323000000000000
#007350:000000000013000000000000000000000000000000000000
#007320:000000000000000000000023000000000000000000000000
#008380:13230000
#0083b0:0033000000000000
#008351:00132300
#008321:0000003300000000
#0083b0:000000000000133300000000
#008390:000000000000000000000000000000330033000000000000
#008370:000000000000000000332300
#008370:000000000000000000000000000000000000000000000013
#009370:003300000000000000000000
#0093b0:00230000
#0093b0:000000000000000000000013000023000000000000000000
#009320:00000013
#010350:23
#009381:0000000000000013
#0103b1:23
#010381:00001323
#0103b1:0000000000530000
#011381:1333000000000000
#011391:003300000000
#0113a1:000000000033000000000000000000000000000000000000
#0113b1:00230000
#011350:0000133300000000
#011340:000000000033000000000000
#011330:000000000000000000000033000000000000000000000000
#011320:0023
#011381:0000000013330000
#011391:000033
#0113a1:000000000000000000000000000000000033000000000000
#0113b1:00000023
#0113b1:000000000000000000000000000000000000000013330033
#012381:002300000000000000000000
#012320:001300000000000000000000
#012330:0033000000000000
#012350:00230000
#012381:00132300
#0123b1:0000003300000000
#012320:000000000000133300000000
#012340:000000000000000000000000000000330033000000000000
#012360:000000000000000000332300
#012360:000000000000000000000000000000000000000000000013
#013360:003300000000000000000000
#013320:00230000
#0133b0:00000013
#014380:23
#013351:0000000000000013
#014321:23
#014351:00001323
#014321:0000000000530000
#015381:13230000
#0153b1:0053000000000000
#0153b1:000000000000000000000013000000000000000000000000
#015371:0000000000230000
#016321:13
#016361:000000000023000000000000000000000000000000000000
#016370:13
#0163b0:000000000023000000000000000000000000000000000000
#016380:0000001300000000
#0163b0:0023
#016351:000000000000132300000000
#016321:0000000000000013
#017321:23
#0173b0:1323000000000000
#017351:000000130033000000000000000000000000000000000000
#017321:002300
#017380:001300
#0173b0:000000000000000000000023000000000000000000000000
#018320:13
#018350:0023000000000000
#0183b0:0013
#018380:0000000000230000
#0183b0:000000000000000000000000000000000013000023000000
#018350:000000000000000000000000000000000000000000000013
#019350:0033000000000000
#019340:000000000033000000000000000000000000000000000000
#019330:003300
#019320:000000000000000000000023000000000000000000000000
#018381:000000000000000000000000000000000000000000000013
#019381:0033000000000000
#019391:000000000033000000000000000000000000000000000000
#0193a1:003300
#0193b1:000000000000000000000023000000000000000000000000
#019351:000000000000000000000000000000000000000000000013
#020351:002300000000000000000000
#020381:000000000000000000000013000023000000000000000000
#0203b1:000000000000000000000000000000000000000000000013
#021371:0023000000000000
#021371:000000000013000000000000000000000000000000000000
#0213b1:000000000000000000000023000000000000000000000000
#021320:001300
#021350:000000000000000000000023000000000000000000000000
#021350:0000000000001323
#021381:0000000000000013
#022381:23
#022321:000000000000000000130023000000000000000000000000
#022370:000000000000000000000013000000000000000000000000
#0223b0:0000000000230000
#023370:000000000000000000000013000000000000000000000000
#0233b0:0000000000230000
#0233b0:000000000000000000000000000000000000000000000013
#0243b0:002300000000000000000000
#024320:000000000000000000000013000023000000000000000000
#024320:000000000000000000000000000000000000000000000013
#025360:0023000000000000
#0253b0:001300
#025380:000000000000000000000023000000000000000000000000
#025351:000000000000000000000013000000000000000000000000
#025321:0000000000230000
#025370:0000000000132300
#025320:0000000000000013
#026360:0023000000000000
#025381:000000000000000000000000000000000000000000000013
#0263b1:0023000000000000
#026321:0000001333002300
#026361:0000000000530000
#026370:00001323
#0263b0:0000000000530000
#0273b0:000000000000000000130033000000000023000000000000
#027370:000000000000005300000000
#027350:000000000000000000000000000000000000000000000013
#028320:002300000000000000000000
#028380:000000000000000000000013000000000000000000000000
#0283b0:000000000000002300000000
#028320:000000000000000000000000000000000000000000130033
#029360:0023000000000000
#028371:000000000000000000000000000000000000000000000013
#0293b1:0023000000000000
#0293b1:0000132300000000
#0293b1:000000000000000000000013000000000000000000000000
#029381:000000000000002300000000
#029321:000000000000000000000000000000000000000000000013
#030351:002300000000000000000000
#0303b1:000000000000000000000013000000000000000000000000
#030371:0000000000230000
#030361:0000000000000013
#031321:00230000
#0303b0:0000000000000013
#031370:00230000
#0313b0:000000000000000000000013000000000000000000330033
#031390:000000000000333300333300
#031370:000000000000000000000000000000330033000000000000
#032380:000033330000000000000000000000000000000000000000
#0323b0:0000002300000000
#032380:000000000000000000000013000023000000000000000000
#032351:000000000000000000000000000013000023000000000000
#0323b0:000000000000000000000000000000000013000000000000
#032390:000000000000000000332300
#032361:000000000013
#032341:000000000000000000000000000000000000000000330023
#032390:000000000000000000000000000000000000000000000013
#033370:332300000000000000000000
#033341:001300000000000000000000
#033321:0033002300000000
#0333b0:0000001300000000
#033370:0023
#033321:0013
#033361:0000000000230000
#0333b0:0000000000132300
#033361:00000013
#033321:0000000000000023
#033370:0000000000000013
#0343b0:23
#034370:00132300
#0343b0:0000005300000000
#034321:0013
#034361:0000000000230000
#0343b0:0000000000130000
#034370:00000023
#034321:00000013
#034361:0000000000000023
#0343b0:0000000000000013
#0353b0:33230000
#035370:0053000000000000
#035361:13230000
#035321:0053000000000000
#035361:000000000000000000130033000000000000000000000000
#035331:000000000000000000000000000033330033000000330033
#035351:000000000000000000333300
#036351:000033330000000000000000000000000000000000000000
#036321:0000002300000000
#036351:000000000000000000000013000023000000000000000000
#036390:000000000000001300000000
#0363b0:000000000000000000000000000000330023000000000000
#036331:000000000000000000000000000000000013000000000000
#036351:000000000000000000332300
#0363a0:000000000013
#036380:000000000000000000000000000000000000000000330023
#036321:000000000000000000000000000000000000000000000013
#037321:002300000000000000000000
#037390:001300000000000000000000
#0373b0:0033000023000000
#0383b0:1323000000000000
#038320:0000132300000000
#0383b0:0000000013230000
#038320:0000000000001323
#039320:13
#040320:23
#0403b1:13
#040371:00230000
#040381:0000000000000013
#0413b1:00000023
#041350:13
#041320:00000023
#0433b0:13
#0443b0:23
#044321:13
#044361:00230000
#0443b0:00130000
#044370:0023
#044350:0000000000000013
#045320:00000023
#045381:13
#0453b1:00000023
#047341:12
#047361:0022
#047380:0012
#0483a0:22
#048361:12220000
#0483a0:00122200
#048341:00001222
#048380:00000012
#049380:22
#049361:12
#049341:0022
#0493a0:00001222
#049361:00000012
#050361:22
#050380:12220000
#050341:00122200
#050380:0012
#0513a0:22
#051361:12
#051341:0022
#0513a0:0012
#052380:22
#052341:12220000
#0523a0:00122200
#052361:00001222
#0523c0:00000012
#0533c0:22
#053341:12
#053361:0022
#0533a0:0012
#054380:22
#054361:12
#054341:0022
#054381:000000000000000000000000000000000000000000000013
#055381:002300000000000000000000
#055351:000000000000000000000013000023000000000000000000
#055321:000000000000000000000000000000000000000000000013
#056361:0023000000000000
#056361:000000000013000000000000000000000000000000000000
#056321:000000000000000000000023000000000000000000000000
#0563b0:001300
#056380:000000000000000000000023000000000000000000000000
#056380:0000000000001323
#056351:0000000000000013
#057351:23
#0573b1:000000000000000000130023000000000000000000000000
#057360:000000000000000000000013000000000000000000000000
#057320:0000000000230000
#058360:000000000000000000000013000000000000000000000000
#058320:0000000000230000
#058320:000000000000000000000000000000000000000000000013
#059320:002300000000000000000000
#0593b0:000000000000000000000013000023000000000000000000
#0593b0:000000000000000000000000000000000000000000000013
#060370:0023000000000000
#060370:000000000013000023000000000000000000000000000000
#060321:001300
#060351:000000000000000000000023000000000000000000000000
#060380:000000000000000000000013000000000000000000000000
#0603b0:0000000000230000
#060361:0000000000132300
#0603b1:0000000000000013
#061371:0023000000000000
#060350:000000000000000000000000000000000000000000000013
#061320:0023000000000000
#0613b0:0000001333002300
#061370:0000000000530000
#061361:00001323
#061321:0000000000530000
#062321:000000000000000000130033000000000023000000000000
#062361:000000000000005300000000
#062381:000000000000000000000000000000000000000000000013
#0633b1:002300000000000000000000
#063351:000000000000000000000013000000000000000000000000
#063321:000000000000002300000000
#0633b1:000000000000000000000000000000000000000000130033
#064371:0023000000000000
#063360:000000000000000000000000000000000000000000000013
#064320:0023000000000000
#064380:000000000000000013000023000000000000000000000000
#064321:000000000000000000000013000000000000000000000000
#064351:000000000000002300000000
#0643b1:000000000000000000000000000000000000000000000013
#065381:002300000000000000000000
#065321:000000000000000000000013000000000000000000000000
#065361:0000000000230000
#065361:0000000000000014
#066371:00520000000000000000000000000000
#066341:00280000
#066321:000000000000001300000033
#066331:0000000000330033
#066341:000000003333
#066351:000000000000000000000000000000000033003300000000
#066361:00000033
#067321:0033000000000000
#067361:000000000000000000000000003400000000000000000000
#070321:22
