This file was generated by Ched 2.6.4.0.
#TITLE ""
#ARTIST ""
#DESIGNER ""
#DIFFICULTY 0
#PLAYLEVEL
#SONGID ""
#WAVE ""
#WAVEOFFSET 0
#JACKET ""
#REQUEST "ticks_per_beat 480"
#00002: 4
#BPM01: 109
#00008: 01
#TIL00: ""
#HISPEED 00
#MEASUREHS 00
#04615:1313
#04618:00130000
#04218:13000013
#04215:0000130000000013
#04212:0000000000130000
#0421b:0013
#02315:000000000000130000000000000000000013000000000000
#02318:000000130000000000000013000000000000000000000023
#0231b:13
#02312:13
#00815:0013000013000000
#00818:0000001300130000
#0081b:23130013
#00812:23130013
#01618:0000000000130013
#01615:000000000000000000130000000013000000000000000000
#0161b:0013
#01515:1300000000000013
#01518:00130013
#0401b:00000013
#04012:0000000000130000
#04018:0000000013000013
#04015:0000001300000000
#01018:00131300
#0101b:0000000000130000
#01015:0013001300000013
#00715:13000013
#00718:000000000013000000000000000000000000000000130000
#0071b:000000000000000000000023000000000000000000000000
#00218:0013000013000000
#00215:0000130000130013
#0021b:0000001300000000
#00212:00000013
#00015:000000130000130000001300
#00018:0013000000130013
#00012:2300001300000000
#0001b:23000013
#01915:0013000000000000
#01918:000000000000000000000000000000000013000000000000
#01912:000000000000000000000000000000000000000000000023
#01914:000000000033000000000000000000000000000000000000
#01913:003300
#00318:1300000000000033
#00315:000000000013000000000000000000000000000000000000
#00312:000000000000000000000023000000000000000000000000
#0031a:000000000000000000000000000000000000003300000000
#00319:000000000033
#00317:000000000000000000000000000000000000000000003333
#00615:0013000013000000
#00618:0000130000130013
#00612:0000001300000000
#0061b:00000013
#00418:000000130000130000001300
#00415:0013000000130013
#0041b:0000001300000000
#00412:00000013
#00410:41
#0091b:13000013
#00918:0013000000130013
#00915:00131300
#00912:0000001300000000
#0051b:0013000000001300
#00518:0000130013000013
#00515:000000000000000000130000000000000000000013000000
#00512:0000000000130000
#00112:0013000000001300
#00115:0000130013000013
#00118:000000000000000000130000000000000000000013000000
#0011b:0000000000130000
#01218:0013000013000000
#01215:0000001300130000
#01212:23130013
#0121b:23130013
#01210:41
#01312:13000013
#01315:0013000000130013
#01318:00131300
#0131b:0000001300000000
#01415:00131300
#01412:0000000000130000
#01418:0013001300000013
#01115:0000000000000013
#01715:13
#03915:0000001300130013
#03918:00001313
#0391b:23
#03912:23
#03910:41
#0441b:0000000000130000
#04412:00000013
#04415:0000000000000013
#04318:0000001300130013
#04315:00001313
#04312:23
#0431b:23
#04815:00000013
#04918:13
#04915:00130000
#0491b:0013
#04912:00000013
#05018:13000013
#05015:00130000
#05012:0013
#05212:13
#05215:00130000
#05218:0013
#0521b:00000013
#02712:13
#0271b:13
#02718:000000130000000000000013000000000000000000000000
#02715:000000000000130000000000000000000013000000000000
#03818:0000130000130013
#03815:0013001300001300
#03812:1313
#0381b:1313
#03015:0000000000000013
#0301b:00000013
#03018:001300
#03118:000000000000000000000000130000000000000000000013
#03115:0000000000130000
#0311b:00000013
#03112:0000230000000013
#03215:130000130000000000000000130000000000000000000013
#03218:000013000000000000000000000000130000000000000000
#03212:00000013
#0321b:0000001300000013
#03318:1313001300001300
#03315:000013000000000000000000130000000000000000130000
#03312:0000000000130000
#0341b:13
#03415:00130013
#03418:0000000000130013
#03718:000013000000000000000000000000000000000000130000
#03715:1313000000001300
#03712:00000000001300000000000000000000
#02418:000000000013000000000000000013000000130000130000
#02415:000013000000000000000023000000000013000013000000
#0221b:13
#02212:130000000000000000000013000000000000000000000000
#02218:0013000000001300
#02215:0000130000000013
#0251b:000000000000000000000013000000000000000000000000
#02515:000000000000000000000000000000000000130000000013
#02518:000000000013
#0261b:0013
#02618:0000000000130000
#02615:0000001300000000
#05818:000000000000130000000000000000000013000000000000
#05815:000000130000000000000013000000000000000000000023
#05812:13
#0581b:13
#0621b:13
#06212:13
#06215:000000130000000000000013000000000000000000000000
#06218:000000000000130000000000000000000013000000000000
#05915:000000000013000000000000000013000000130000130000
#05918:000013000000000000000023000000000013000013000000
#05415:000000000000000000000000000000000013000000000000
#0541b:000000000000000000000000000000000000000000000023
#05518:000000000013000000000000000013000000130000130000
#05515:000013000000000000000000000000000013000013000000
#05512:000000000000000000000023000000000000000000000000
#0551f:21
#05712:13
#0571b:130000000000000000000013000000000000000000000000
#05715:0013000000001300
#05718:0000130000000013
#05618:000000000000000000000000000000000013000000130000
#05615:00000013
#05610:41
#06012:000000000000000000000013000000000000000000000000
#06018:000000000000000000000000000000000000130000000013
#06015:000000000013
#06112:0013
#06115:0000000000130000
#06118:0000001300000000
#06515:001300
#06512:00000023
#06518:0000000000000023
#06315:000000000013000000000000000000000013000013000000
#06318:0000000000001313
#06418:00130000
#02818:000000000013000000000000000000000013000013000000
#02815:0000000000001313
#02810:41
#02915:00130000
#02015:000000000013000000000000000013000000130000130000
#02018:000013000000000000000000000000000013000013000000
#0201b:000000000000000000000023000000000000000000000000
#02010:41
#02115:000000000000000000000000000000000013000000130000
#02118:00000013
#03515:000000000000000000000000130000000000000000000013
#03518:0000000000130000
#03512:0000001300001300
#0351b:0000230000000013
#03618:130000130000000000000000130000000000000000000013
#03615:000013000000000000000000000000130000000000000000
#0361b:00000013
#03612:0000001300000013
#0471f:11
#06613:0000000000330000
#06614:000000000000000000000000000000003333000000000000
#06615:00000033
#06616:000000000000000000000000000000000000003333330000
#01952:000000000000000000000013000000000000000000000013
#01955:0063000000000000
#00352:000000000000000000000013000000000000000000000000
#00355:000000000063000000000000000000000000000000000000
#01058:0053
#0105b:1300000000230000
#00758:000000000053000000000000000000000000000000000000
#0075b:000000000000000000000013000000000000000000000000
#0095b:00000063
#00958:0000000000000053
#01352:00000053
#01355:0000000000000063
#01452:1300000000230000
#01455:0063
#02358:000000000000000000000053000000000000000000000013
#03055:0000000000000063
#03455:00630000
#03458:0000000000000053
#03152:00130000
#0355b:00130000
#02455:000000000000000000000013000000000000000000000000
#02252:000000000000000000000053000000000000000000000000
#0255b:000000000000000000000063000000000000000000000000
#02555:000000000000000000000000000000000000000000000063
#0265b:00006343
#02658:0000000000230000
#02652:0013000000000000
#05855:000000000000000000000063000000000000000000000013
#0575b:000000000000000000000063000000000000000000000000
#06052:000000000000000000000053000000000000000000000000
#06058:000000000000000000000000000000000000000000000053
#06152:00005333
#06155:0000000000230000
#0615b:0013000000000000
#05958:000000000000000000000013000000000000000000000000
#0545b:000000000000000000000000000000000000000000000013
#05552:000000000000000000000013000000000000000000000000
#06255:000000000000000000000063000000000000000000000000
#02758:000000000000000000000053000000000000000000000000
#0205b:000000000000000000000013000000000000000000000000
#03755:0063000000000000
#03752:00000000002300000000000000000000
#06558:0000000000000053
#0665b:00130000
#003350:000000130033000000000000000000000000000000000000
#003320:000000000000000000000023000000000000000000000000
#0033b0:0000000000133300
#0033a0:000000000000000000000000000000000000003300000000
#003390:000000000033
#003380:0000000000000033
#003370:000000000000000000000000000000000000000000003333
#004370:23
#007380:000000130033000000000000000000000000000000000000
#0073b0:000000000000000000000023000000000000000000000000
#0093b0:00000013
#009380:0000000000000033
#0103b0:23
#010380:00001323
#0103b0:0000000000530000
#011380:1333000033330000
#011390:000000003300000000000033000000003300000000000000
#0113a0:000000000033000000003300000000000033000000000000
#0113b0:0000333300002300
#013320:00000013
#013350:0000000000000033
#014320:23
#014350:00001323
#014320:0000000000530000
#015350:000000000000000000130033000000000000000000000000
#015320:0000000000230000
#016380:13
#0163b0:000000000023000000000000000000000000000000000000
#017380:000000130033000000000023000000000000000000000000
#0173b0:003300
#017350:00000013
#018320:33
#018350:000000330023000000000000000000000000000000000000
#018380:000000000000000013000000000000330033000000000000
#0183b0:000000330023
#018350:000000000000000000000000000000000000000000000013
#019350:0033000000000000
#019340:000000000033000000000000000000000000000000000000
#019330:003300
#019320:000000000000000000000023000000000000000000000000
#019350:00000013
#019320:000000000000000000000000000000000000000000330023
#020380:00130000
#0203b0:000000000000000000330023000000000000000000000000
#020380:000000000000000000000000000000000000000000000013
#0213b0:000000330033000000000023000000000000000000000000
#021380:003300
#022320:000000000000000000130033000000000000000000000000
#022350:0000000000230000
#023380:000000000000000000130033000000000000000000000000
#0233b0:0000000000230000
#0233b0:00000013
#023380:000000000000000000000000000000000000000000330023
#024320:00130000
#024350:000000000000000000330023000000000000000000000000
#024350:000000000000000000000000000000000000000000000013
#025320:000000330023000000000000000000000000000000000000
#0253b0:000000000000000013000033000000000000000000000000
#025380:0000000000230000
#025350:000000000000000000000000000000000000000000130033
#026320:0023000000000000
#0263b0:00001323
#026380:0000000000530000
#027380:000000000000000000130033000000000000000000000000
#0273b0:0000000000230000
#027380:00000013
#0273b0:000000000000000000000000000000000000000000330033
#028380:002300000000000000000000
#028350:000000130000002300000000
#028320:000000000000000000330033000000000000000000000000
#0283b0:000000000000000000000000000000000000000000000013
#029380:0023000000000000
#029380:000000000000000000130033000000000000230000000000
#0293b0:0000000000330000
#029350:000000000000000000000000000000000000000000130033
#030320:000000330023000000000000000000000000000000000000
#030350:000000000000000000130033000000000000000000000000
#030320:0000000000230000
#030350:0000000000000013
#031320:00230000
#034350:00130000
#034320:0023
#034380:0000000000000013
#0353b0:00230000
#037350:0013000023000000
#037320:00000000005300000000000000000000
#040380:13
#0403b0:00230000
#041350:13
#041320:00000023
#044350:1323
#044320:00330000
#045380:13
#0453b0:00000023
#047380:13230000
#047350:00001323
#048380:13
#0483b0:0023
#051350:13230000
#051380:00001323
#053350:13
#053320:0023
#054380:13
#0543b0:0023
#054380:00000013
#0543b0:000000000000000000000000000000000000000000330023
#055350:00130000
#055320:000000000000000000330023000000000000000000000000
#055350:000000000000000000000000000000000000000000000013
#056320:000000330033000000000023000000000000000000000000
#056350:003300
#0573b0:000000000000000000130033000000000000000000000000
#057380:0000000000230000
#058350:000000000000000000130033000000000000000000000000
#058320:0000000000230000
#058320:00000013
#058350:000000000000000000000000000000000000000000330023
#0593b0:00130000
#059380:000000000000000000330023000000000000000000000000
#059380:000000000000000000000000000000000000000000000013
#0603b0:000000330023000000000000000000000000000000000000
#060320:000000000000000013000033000000000000000000000000
#060350:0000000000230000
#060380:000000000000000000000000000000000000000000130033
#0613b0:0023000000000000
#061320:00001323
#061350:0000000000530000
#062350:000000000000000000130033000000000000000000000000
#062320:0000000000230000
#062350:00000013
#062320:000000000000000000000000000000000000000000330033
#063350:002300000000000000000000
#063380:000000130000002300000000
#0633b0:000000000000000000330033000000000000000000000000
#063320:000000000000000000000000000000000000000000000013
#064350:0023000000000000
#064350:000000000000000013000033000000000000230000000000
#064320:0000000000330000
#064380:000000000000000000000000000000000000000000130033
#0653b0:000000330023000000000000000000000000000000000000
#065380:000000000000000000130033000000000000000000000000
#0653b0:0000000000230000
#065380:0000000000000013
#0663b0:00230000
#066320:000000000000001300000000
#066330:0000000000330000
#066340:000000000000000000000000000000003333000000000000
#066350:00000033
#066360:000000000000000000000000000000000000003333333300
#067360:0033000000000000
#067320:000000000000000000000000003400000000000000000000
#070320:22
