This file was generated by Ched 2.6.4.0.
#TITLE ""
#ARTIST ""
#DESIGNER ""
#DIFFICULTY 0
#PLAYLEVEL
#SONGID ""
#WAVE ""
#WAVEOFFSET 0
#JACKET ""
#REQUEST "ticks_per_beat 480"
#00002: 4
#BPM01: 109
#00008: 01
#TIL00: ""
#HISPEED 00
#MEASUREHS 00
#02117:0013000000000000
#02118:000000000000000000000000000013000013000013000000
#02112:000000000000130000000013000000000000000000130000
#02116:13
#02115:0000000000130000
#0211b:0000001300000000
#02012:000000001300000000130000
#02015:000000130000130000000000130013000000000000000000
#02018:230013000013000000000023000000130000000000130000
#0201b:0000001300000000
#02010:41
#0221b:1313001300000000
#02216:0013001300000000
#02217:000000000000130000000013000000000000000000000000
#02212:000000000000130000000013000000000000000000000000
#03012:000013000013000000000000000000000000130000000000
#0301b:000000000000000013000013000000000000130000000000
#03015:0000000000000013
#03016:0000001300000000
#03716:1400000000120014
#0371b:00000013
#03712:00000013
#03719:001200
#03715:000000000000000000000012000000000000000000000000
#03718:000000000000001200000000
#0391a:0000001300130000
#0391b:2313
#03919:00000013
#03918:0000000000000013
#03912:13
#03917:0013
#03910:41
#04012:0013
#04014:0000000000130000
#04016:0013130000001313
#04017:0000001313000000
#04019:0000000000130000
#0401b:1300000000001313
#0241b:2300001300130013
#02412:0013130013000000
#02418:000013000013000000000023000000000000000000000000
#02415:000000001300001300130000
#02519:0013001300000000
#0251b:000000000000000000000013000000000000130000000000
#02516:130000000000000000000013000000000000000000000000
#02512:0000130000130000
#02514:0000000000000013
#02712:130000160000130000001300
#02715:0013000000001300
#02718:160000000000000000130000000000000013000000000000
#0271b:000000000000130000000013000000130000000000000000
#02716:000000000000000000000000000000000000000000000000000000000013000000000000000000000000000000000000
#02717:000000000000000000000000000000000000000000130013
#0281b:000000130000000013000000000000000000130000000000
#02816:000000000000000000130013000000000013000000000013
#02817:000000000013
#02818:00130000
#02815:000000000013000000000000000000000000000000000000
#02812:0000000000130013
#02810:41
#02918:000000001300130000130000
#02915:0000001300130000
#0291b:130000000000130000000000000000000000000000000013
#02916:000000000013000000000000000000000000000000000013
#02912:0013000000000013
#02917:0000000000000013
#02616:000000000000000000000000000000000000000000000000000000000000000000000000000000000000000000000000000000000000000000000000000000000000000000000000000000000000000000000000000000000000000000000000000000000000000000000000000000000000000000000000000000000000000000000000000000000000000000000000000000000000000000000000000000000000000000000000000000000000000000000000000000000000000000000000000000000000000000000000000000000000000000000000000000000000000000000000000000000000000000000000130000000000000000000000000000000000000000000000000000000000000000000000000000000000000000000000000000000000000000000000000000000000000000000000000000000000000000000000000000000000000000000000000000000000000000000000000000000000000000000000000000000000000000000000000000000000000000000000000000000000000000000000000000000000000000000000000000000000000000000000000000000000000000000000000000000000000000000000000000000000000000000000000000000000000000000000000000000000000000000000000000000000000000000000000000000000000000000000000000000000000000000000000000000000000000000000000000000000000000000000000000000000000000000000000000000000000000000000000000000000000000000000000000000000000000000000000000000000000000000000000000000000000000000000000000000000000000000000000000000000000000000000000000000000000000000000000000000000000000000000000000000000000000000000000000000000000000000000000000000000000000000000000000000000000000000000000000000000000000000000000000000000000000000000000000000000000000000000000000000000000000000000000000000000000000000000000000000000000000000000000000000000000000000000000000000000000000000000000000000000000000000000000000000000000000000000000000000000000000000000000000000000000000000000000000000000000000000000000000000000000000000000000000000000000000000000000000000000000000000000000000000000000000000000000000000000000000000000000000000000000000000000000000000000000000000000000000000000000000000000000000000000000000000000000000000000000000000000000000000000000000000000000000000000000000000000000000000000000000000000000000000000000000000000000000000000000000000000000000000000000000000000000000000000000000000000000000000000000000000000000000000000000000000000000000000000000000000000000000000000000000000000000000000000000000000000000000000000000000000000000000000000000000000000000000000000000000000000000000000000000000000000000000000000000000000000000000000000000000000015000000000000000000000000000000000000000000000000000000000000000000000000000000000000000000000000000000000000000000000000000000000000000000000000000000000000000000000000000000000000000000000000000000000000000000000000000000000000000000000000000000000000000000000000000000000000000000000000000000000000000000000000000000000000000000000000000000000000000000000000000000000000000000000000000000000000000000000000000000000000000000000000000000000000000000000000000000000000000000000000000000000000000000000000000000000000000000000000000000000000000000000000000000000000000000000000000000000000000000000000000000000000000000000000000000000000000000000000000000000000000000000000000000000000000000000000000000000000000000000000000000000000000000000000000000000000000000000000000000000000000000000000000000000000000000000000000000000000000000000000000000000000000000000000000000000000000000000000000000000000000000000000000000000000000000000000000000000000000000000000000000000000000000000000000000000000000000000000000000000000000000000000000000000000000000000000000000000000000000000000000000000000000000000000000000000000000000000000000000000000000000000000000000000000000000000000000000000000000000000000000000000000000000000000000000000000000000000000000000000000000000000000000000000000000000000000000000000000000000000000000000000000000000000000000000000000000000000000000000000000000000000000000000000000000000000000000000000000000000000000
#02617:13
#02612:000000000000000000000000000000000000000000000000000000000000000000000000000000000000000000000000000000000000000000000000000000000000000000000000000000000000000000000000000000000000000000000000000000000000000000000000000000000000000000000000000000000000000000000000000000000000000000000000000000000000000000000000000000000000000000000000000000000000000000000000000000000000000000000000000000000000000000000000000000000000000000000000000000000000000000000000000000000000000000000000130000000000000000000000000000000000000000000000000000000000000000000000000000000000000000000000000000000000000000000000000000000000000000000000000000000000000000000000000000000000000000000000000000000000000000000000000000000000000000000000000000000000000000000000000000000000000000000000000000000000000000000000000000000000000000000000000000000000000000000000000000000000000000000000000000000000000000000000000000000000000000000000000000000000000000000000000000000000000000000000001500000000000000000000000000000000000000000000000000000000000000000000000000000000000000000000000000000000000000000000000000000000000000000000000000000000000000000000000000000000000000000000000000000000000000000000000000000000000000000000000000000000000000000000000000000000000000000000000000000000000000000000000000000000000000000000000000000000000000000000000000000000000000000000000000000000000000000000000000000000000000000000000000000000000000000000000000000000000000000000000000000000000000000000000000000000000000000000000000000000000000000000000000000000000000000000000000000000000000000000000000000000000000000000000000000000000000000000000000000000000000000000000000000000000000000000000000000000000000000000000000000000000000000000000000000000000000000000000000000000000000000000000000000000000000000000000000000000000000000000000000000000000000000000000000000000000000000000000000000000000000000000000000000000000000000000000000000000000000000000
#0261b:00130000
#02615:000000000000000000000000000000000000000000000000000000000000000000000000000000000000000000000000000000000000000000000000000000000000000000000000000000000000000000000000000000000000000000000000000000000000000000000000000000000000000000000000000000000000000000000000000000000000000000000000000000000000000000000000000000000000000000000000000000000000000000000000000000000000000000000000000000000000000000000000000000000000000000000000000000000000000000000000000000000000000000000000000000000000000000000000000000000000000000000000000000000000000000000000000000000000000000000000000000000000000000000000000000000000000000000000000000000000000000000000000000000000000000000000000000000000000000000000000000000000000000000000000000000000000000000000000000000000000000000000000000000000000000000000000000000000000000000000000000000000000000000000000000000000000000000000000000000000000000000000000000000000000000000000000000000000000000000000000000000000000000000000000000000000000000000000000000000000000000000000000000000000000000000000000000000000000000000000000000000000000000000000000000000000000000000000000000000000000000000000000000000000000000000000000000000000000000000000000000000000000000000000000000000000000000000000000000000000000000000000000000000000000000000000000000000000000000000000000000000000000000000000000000000000000000000000000000000000000000000000000000000000000000000000000000000000000000000000000000000000000000000000000000000000000000000000000000000000000000000000000000000000000000000000000000000000000000000000000000000000000000000000000000000000000000000000000000000000000000000000000000000000000000000000000000000000000000000000000000000000000000000000000000000000000000000000000000000000000000000000000000000000000000000000000000000000000000000000000000000000000000000000000000000000000000000000000000000000000000000000000000000000000000000000000000000000000000000000000000000000000000000000001500000000000000000000000000000000000000000000000000000000000000000000000000000000000000000000000000000000000000000000000000000000000000000000000000000000000000000000000000000000000000000000000000000000000000000000000000000000000000000000000000000000000000000000000000000000000000000000000000000000000000000000000000000000000000000000000000000000000000000000000000000000000000000000000000000000000000000000000000000000000000000000000000000000000000000000000000000000000000000000000000000000000000000000000000000000000000000000000000000000000000000000000000000000000000000000000000000000000000000000000000000000000000000000000000000000000000000000000000000000000000000000000000000000000000000000000000000000000000000000000000000000000000000000000000000000000000000000000000000000000000000000000000000000000000000000000000000000000000000000000000000000000000000000000000000000000000000000000000000000000000000000000000000000000000000000000000000000000000000000000000000000000000000000000000000000000000000000000000000000000000000000000000000000000000000000000000000000000000000000000000000000000000000000000000000000000000000000000000000000000000000000000000000000000000000000000000000000000000000000000000000000000000000000000000000000000000000000000000000000000000000000000000000000000000000000000000000000000000000000000000000000000000000000000000000000000000000000000000000000000000000000000000000000000000000000000000000000000000000000130000000000000000000000000000000000000000000000000000000000000000000000000000000000000000000000000000000000000000000000000000000000000000000000000000000000000000000000000000000000000000000000000000000000000000000000000000000000000000000000000000000000000000000000000000000000000000000000000000000000000000000000000000000000000000000000000000000000000000000000000000000000000000000000000000000000000000000000000000000000000000000000000000000000000000000000000000000000000000000000
#02618:0000000000000013
#02619:0000000000150000
#03812:1313000013000000
#0381b:0000131300001300
#03816:0000000000130000
#03817:0000000000000013
#03216:0000001414141414
#03212:13130000
#03412:00130000
#03416:0014001300141400
#0341b:00130000
#02317:000000000000000000000013000000000000000000000000
#02312:000000000000000000130013000000130000000000130000
#0231b:000000000000000000000000001300000000130000000000
#02315:000000000000000000000000000000000013000000000023
#02318:000000000013
#0021b:130000000013000000130000000013000000000000130000
#0021b:13
#00212:130000130000000000000013000000000013000000000000
#00212:13
#00216:0000001300130013
#00217:000000000000000000000013000000000000000000000000
#00215:00160016
#0011b:130000000000000000000000000000000000000000000000001300000000000000001300000000000000130000000000
#00115:000000000013000000000000000000000000000013000000
#00112:130000000000000000130013000013000000160000000000
#00118:000000130000160013000000000000000000000000000013
#00117:000000000000000000000013000000130000000000000000
#00018:000000000000000000000013000000000000000000000000
#00015:000000000000160000130000000000130000160000130013
#0001b:230000130000000013000000000013000000000013000000
#00012:230000000013000000000013000000000013000000000000
#00016:000000000000000000000000000000000000000000000000001300000000000000000000000000000000000000000000
#01518:001300
#0151b:130000000000130000000013000000000000000000130000
#01516:0000000000130013
#01517:000000000000000000000000001300000000130000000000
#01512:130000000000130000000013000000000000130000000000
#01515:0013001300000000
#00315:0000160000130033
#00312:130000000000130000001300000000000000001300000000000000000000000000000000000000000000000000000000
#00316:000000000000000013000023000000000000000033000000
#00317:000000000000000000000000000000000000001300000000000000000000000000000000000033000000000000000000
#0031b:000000000000000013000023000000000000000000000000
#00318:0000000000160000
#00313:000000000000000000000000000000000000000000000033
#00314:000000000000000000000033
#01812:130000000000000000000000001300000000000000000000000000000000000000000000000000001300000000000000
#01816:000000130000000000001300000000000000130000001300000000000000000000000000000000000000000000000000
#0181b:130000000000000000000000000000001300000000000000130000000000000000000000001300000000000000000000
#01817:000000000000000000000000000000000000000000000000000000130000000000001300000000000000000000000000
#01715:000000000000000000000013
#01718:000000000013
#0171b:130000000013000000000000000000000000130000000000
#01712:000000130000000000000013000000000000130000000000
#01716:000000000013000000000000000000000000000000000000
#01717:001300
#01617:130000000000000000000000000013000000000000130000
#01616:000000000013000000000000000000000000130000000000000000000000000000000000000000000000000000000000
#01612:1300000000131313
#0161b:000000000013000000000000000000000000000000000000000000000000000000000000130000000000000000000000
#01319:0000001300000013
#01315:000013000013
#01312:00130013
#01317:1313
#01314:001300000000001300000000
#01318:0013000000130000
#01316:000000000013130000000000000000000013130000000000
#0131b:000000000000000000000013000000000000000000000013
#01216:230013000000000000130000000013000000000013000000
#01212:000000000000000000000000000000000000000000001300000000000000000000001300000000000000001300000000
#0121b:000000130000000013000000000000000000000000000013
#01210:41
#01417:1313000000000000
#01415:000000000000000000000000000000000013000000130013
#0141b:00131313
#01418:000000000013
#01412:0013001300000000
#01416:000000000000000000000000000000000000000000000000000000000013000000000000000000000000000000000000
#0111b:000000000000130000130000000000000000130000000013
#01112:130000131c1c000000001c1c130000131c1c130013000000
#01117:0000000000000013
#01916:0012000000000000
#01918:00000013
#01915:000000000000000000000000000000000013000000000023
#01912:0000000000000013
#0191b:000000000013
#00612:130000000013000000130000000013000000000000130000
#00612:13
#0061b:130000130000000000000013000000000013000000000000
#0061b:13
#00617:0000001300130013
#00616:000000000000000000000013000000000000000000000000
#00615:00160016
#00512:130000000000000000000000160000000000000000000000001300000000000000001300000000000000130000000000
#00518:000000000013000000000000000000000000160013000000
#0051b:130000000000000000130013000013000000000000000000
#00516:000000000000000000000013000000130000000000000000
#00515:000000130000000013000000000000000000000000000013
#00415:000000000000160000000013000000000000160000000000
#00418:000000000000000000130000000000130000000000130013
#00412:000000130000000013000000000013000000000013000000
#0041b:230000000013000000000013000000000013000000000000
#00417:000000000000000000000000000000000000000000000000001300000000000000000000000000000000000000000000
#00410:41
#0071b:130000000000130000001300000000000000001300000000000000000000000000000000130000001300000000000000
#00715:00160000
#00717:000000000000000013000023000000000000000000000000
#00716:000000000000000000000000000000000000001300000000000000000000000000000000000000000000130000000000
#00712:000000000000000013000023000000000000130000000013
#03112:00231313
#0311b:0000230000130013
#03316:14
#03312:00130000
#0331a:0000001400000000
#03612:0000001c00000000
#0361c:12120000
#03614:0000000018180000
#03615:0000000000001616
#03519:0015
#03512:0000001400140013
#0351b:00000013
#0351a:0000001400000000
#03515:00230000
#03518:00230000
#05618:0013000000130000
#05615:000000000000160000000000000000000013000016000000
#05612:160000000000000000000013000000000000000000130000
#0561b:000000000000000000130000000013000000000000000000
#05610:41
#05515:260000160000000013130000160000160000160000000000
#05518:000016000013130000000026000000000000000000000000
#05512:000000000000001600000000
#0551b:0000000000000013
#0551f:21
#0571b:130000130000000000130013000000000000000000000000
#05716:000000130000000000130013001300000000000000000000
#05712:00130000
#05717:00130000
#05915:000016000016000016000026000016000000000000160000
#05912:0016130016001300
#0591b:0000001300000000
#05918:2600000000160000
#06018:0016000000000000
#06015:1300001600000000
#06012:000000000000130000000013000000000000000000000000
#06016:00000013
#06017:000000000000000000000000000000000000000000001300000000000000000000130000000000000000000000000000
#0601b:000000000000000000000000000000000000000000000000001300000000130000000000000000000000130000000000
#06212:000000000000160000000000000000000000000000000000000000000013000000000000000000001300000000000000
#06216:00001313
#06218:0000001600000000
#06215:16160000
#0621b:000000000000000000000013000000000013000000000013
#06217:0000000000130013
#06317:0013130000001300
#06312:000000000013000000000013000000000013000000000013
#0631b:000013000013
#06316:0000001300130013
#06416:000000130000130000000000130000000000130000000013
#06417:1300001300130013
#06412:0000000000000013
#0641b:000000000000000000000000000000000000000000000013
#06112:1300130000150000
#0611b:0013130000000000
#06115:000000000000000000000000000000000000000000000000000000000000000000000000000000000000000000000000000000000000000000000000000000000000000000000000000000000000000000000000000000000000000000000000000000000000000000000000000000000000000000000000000000000000000000000000000000000000000000000000000000000000000000000000000000000000000000000000000000000000000000000000000000000000000000000000000000000000000000000000000000000000000000000000000000000000000000000000000000000000000000000000000000000000000000000000000000000000000000000000000000000000000000000000000000000000000000000000000000000000000000000000000000000000000000000000000000000000000000000000000000000000000000000000000000000000000000000000000000000000000000000000000000000000000000000000000000000000000000000000000000000000000000000000000000000000000000000000000000000000000000000000000000000000000000000000000000000000000000000000000000000000000000000000000000000000000000000000000000000000000000000000000000000000000000000000000000000000000000000000000000000000000000000000000000000000000000000000000000000000000000000000000000000000000000000000000000000000000000000000000000000000000000000000000000000000000000000000000000000000000000000000000000000000000000000000000000000000000000000000000000000000000000000000000000000000000000000000000000000000000000000000000000000000000000000000000000000000000000000000000000000000000000000000000000000000000000000000000000000000000000000000000000000000000000000000000000000000000000000000000000000000000000000000000000000000000000000000000000000000000000000000000000000000000000000000000000000000000000000000000000000000000000000000000000000000000000000000000000000000000000000000000000000000000000000000000000000000000000000000000000000000000000000000000000000000000000000000000000000000000000000000000000000000000000000000000000000000000000000000000000000000000000000000000000000000000000000000000000000000000000000000000000000000000000000000000000000000000000000000000000000000000000000000000000000000000000000000000000000000000000000000000000000000000000000000000000000000000000000000000000000000000000000000000000000000000000000000000000000000000000000000000000000000000000000000000000000000000000000000000000000000000000000000000000000000000000000000000000000000000000000000000000000000000000000000000000000000000000000000000000000000000000000000000000000000000000000000000000000000000000000015000000000000000000000000000000000000000000000000000000000000000000000000000000000000000000000000000000000000000000000000000000000000000000000000000000000000000000000000000000000000000000000000000000000000000000000000000000000000000000000000000000000000000000000000000000000000000000000000000000000000000000000000000000000000000000000000000000000000000000000000000000000000000000000000000000000000000000000000000000000000000000000000000000000000000000000000000000000000000000000000000000000000000000000000000000000000000000000000000000000000000000000000000000000000000000000000000000000000000000000000000000000000000000000000000000000000000000000000000000000000000000000000000000000000000000000000000000000000000000000000000000000000000000000000000000000000000000000000000000000000000000000000000000000000000000000000000000000000000000000000000000000000000000000000000000000000000000000000000000000000000000000000000000000000000000000000000000000000000000000000130000000000000000000000000000000000000000000000000000000000000000000000000000000000000000000000000000000000000000000000000000000000000000000000000000000000000000000000000000000000000000000000000000000000000000000000000000000000000000000000000000000000000000000000000000000000000000000000000000000000000000000000000000000000000000000000000000000000000000000000000000000000000000000000000000000000000000000000000000000000000000000000000000000000000000000000000000000000000000000000
#06118:0000000000000013
#06116:000000000000000000000000000000000000000000000000000000000000000000000000000000000000000000000000000000000000000000000000000000000000000000000000000000000000000000000000000000000000000000000000000000000000000000000000000000000000000000000000000000000000000000000000000000000000000000000000000000000000000000000000000000000000000000000000000000000000000000000000000000000000000000000000000000000000000000000000000000000000000000000000000000000000000000000000000000000000000000000000000000000000000000000000000000000000000000000000000000000000000000000000000000000000000000000000000000000000000000000000000000000000000000000000000000000000000000000000000000000000000000000000000000000000000000000000000000000000000000000000000000000000000000000000000000000000000000000000000000000000000000000000000000000000000000000000000000000000000000000000000000000000000000000000000000000000000000000000000000000000000000000000000000000000000000000000000000000000000000000000000000000000000000000000000000000000000000000000000000000000000000000000000000000000000000000000000000000000000000000000000000000000000000000000000000000000000000000000000000000000000000000000000000000000000000000000000000000000000000000000000000000000000000000000000000000000000000000000000000000000000000000000000000000000000000000000000000000000000000000000000000000000000000000000000000000000000000000000000000000000000000000000000000000000000000000000000000000000000000000000000000000000000000000000000000000000000000000000000000000000000000000000000000000000000000000000000000000000000000000000000000000000000000000000000000000000000000000000000000000000000000000000000000000000000000000000000000000000000000000000000000000000000000000000000000000000000000000000000000000000000000000000000000000000000000000000000000000000000000000000000000000000000000000000000000000000000000000000000000000000000000000000000000000000000000000000000000000000000000000000001500000000000000000000000000000000000000000000000000000000000000000000000000000000000000000000000000000000000000000000000000000000000000000000000000000000000000000000000000000000000000000000000000000000000000000000000000000000000000000000000000000000000000000000000000000000000000000000000000000000000000000000000000000000000000000000000000000000000000000000000000000000000000000000000000000000000000000000000000000000000000000000000000000000000000000000000000000000000000000000000000000000000000000000000000000000000000000000000000000000000000000000000000000000000000000000000000000000000000000000000000000000000000000000000000000000000000000000000000000000000000000000000000000000000000000000000000000000000000000000000000000000000000000000000000000000000000000000000000000000000000000000000000000000000000000000000000000000000000000000000000000000000000000000000000000000000000000000000000000000000000000000000000000000000000000000000000000000000000000000000000000000000000000000000000000000000000000000000000000000000000000000000000000000000000000000000000000000000000000000000000000000000000000000000000000000000000000000000000000000000000000000000000000000000000000000000000000000000000000000000000000000000000000000000000000000000000000000000000000000000000000000000000000000000000000000000000000000000000000000000000000000000000000000000000000000000000000000000000000000000000000000000000000000000000000000000000000000000000000000000000000000000000000000000000000000000000000000000000000000000000000000000000000000000000000000000000000000000000000000000000000000000000000000000000000000000000000000000000000000000000000000000000000000000000000000000000000000000000000000000000000000000000000000000000000000000000000000000000000000000000000000000000000000000000000000000000000000000000000000000000000000000000000000000000000000000000000000000000000000000000000000000000000000000000000000000000000000000000000000
#06119:000000000000000000000000000000000000000000000000000000000000000000000000000000000000000000000000000000000000000000000000000000000000000000000000000000000000000000000000000000000000000000000000000000000000000000000000000000000000000000000000000000000000000000000000000000000000000000000000000000000000000000000000000000000000000000000000000000000000000000000000000000000000000000000000000000000000000000000000000000000000000000000000000000000000000000000000000000000000000000000000000000000000000000000000000000000000000000000000000000000000000000000000000000000000000000000000000000000000000000000000000000000000000000000000000000000000000000000000000000000000000000000000000000000000000000000000000000000000000000000000000000000000000000000000000000000000000000000000000000000000000000000000000000000000000000000000000000000000000000000000000000000000000000000000000000000000000000000000000000000000000000000000000000000000000000000000000000000000000000000000001500000000000000000000000000000000000000000000000000000000000000000000000000000000000000000000000000000000000000000000000000000000000000000000000000000000000000000000000000000000000000000000000000000000000000000000000000000000000000000000000000000000000000000000000000000000000000000000000000000000000000000000000000000000000000000000000000000000000000000000000000000000000000000000000000000000000000000000000000000000000000000000000000000000000000000000000000000000000000000000000000000000000000000000000000000000000000000000000000000000000000000000000000000000000000000000000000000000000000000000000000000000000000000000000000000000000000000000000000000000000000000000000000000000000000000000000000000000000000000000000000000000000000000000000000000000000000000000000000000000000000000000000000000000000000000000000000000000000000000000000000000000000000000000000000000000000000000000000000000000000000000000000000000000000000000000000000000000000000000000
#05817:000000000000000000000013000000000000000000000000
#05812:000000000000000000000013000000130000000000130000
#0581b:000000000000000000000000001300000000130000000000
#05815:000000000000000000000000000000000016000016000026
#05816:0000001300000000
#05417:000000000000000000000000000000000012120000000000
#05416:000000000000000000000000220000000000000014140000
#05412:000000000000120000000000000000000000000000000026
#05414:0012001200000000
#06617:00120000000000000000000000000000
#06613:000000000000001200001200
#0661c:000000000000000000000000000000000012000000000000
#06619:0000000000121212
#06616:000000000000000000000000000000001200001200000000
#04216:0012000013000000
#04212:0000000000130000
#0421b:00000013
#04217:0000000000000013
#04214:1200001200000000
#0421a:1200001200000000
#04218:00120000
#04313:0000001300130000
#04312:2313
#04314:00000013
#04315:0000000000000013
#0431b:13
#04316:0013
#04416:0000001313000000
#0441b:0013
#04419:0000000000130000
#04417:0013130000001313
#04414:0000000000130000
#04412:1300000000001313
#04118:0000001200000000
#04116:0000001200000000
#04112:13
#0461a:1200001200000000
#04614:1200001200000000
#04618:0012000000000000
#04616:00120000
#04516:0000001200000000
#04518:0000001200000000
#0451b:13
#05314:00120000
#0531a:00000012
#06712:000000000000000000000000001800000000000000000000
#0651b:000000000013000013000000000000000000000000000000
#06517:000013000000000000000013000000000000000000000000
#06516:0000001300000000
#06512:0000000000002c2c
#05018:00000012
#05116:00120000
#05118:00000012
#0491a:00120000
#04714:00000012
#0471a:00120000
#0471f:11
#00917:000000000013130000000000000000000013130000000000
#0091b:00130013
#00915:0013000000130000
#00919:001300000000001300000000
#00912:000000000000000000000013000000000000000000000013
#00916:1313
#00914:0000001300000013
#00918:000013000013
#00817:230013000000000000130000000013000000000013000000
#0081b:000000000000000000000000000000000000000000001300000000000000000000001300000000000000001300000000
#00812:000000130000000013000000000000000000000000000013
#01016:1313000000000000
#01012:00131313
#01017:000000000000000000000000000000000000000000000000000000000013000000000000000000000000000000000000
#0101b:0013001300000000
#01018:000000000000000000000000000000000013000000130013
#01015:000000000013
#02556:000000000000000000000063000000000000000000000000
#02552:0000000000530000
#02656:000000000000000000000000000000000000000000000000000000000000000000000000000000000000000000000000000000000000000000000000000000000000000000000000000000000000000000000000000000000000000000000000000000000000000000000000000000000000000000000000000000000000000000000000000000000000000000000000000000000000000000000000000000000000000000000000000000000000000000000000000000000000000000000000000000000000000000000000000000000000000000000000000000000000000000000000000000000000000000000000430000000000000000000000000000000000000000000000000000000000000000000000000000000000000000000000000000000000000000000000000000000000000000000000000000000000000000000000000000000000000000000000000000000000000000000000000000000000000000000000000000000000000000000000000000000000000000000000000000000000000000000000000000000000000000000000000000000000000000000000000000000000000000000000000000000000000000000000000000000000000000000000000000000000000000000000000000000000000000000000000000000000000000000000000000000000000000000000000000000000000000000000000000000000000000000000000000000000000000000000000000000000000000000000000000000000000000000000000000000000000000000000000000000000000000000000000000000000000000000000000000000000000000000000000000000000000000000000000000000000000000000000000000000000000000000000000000000000000000000000000000000000000000000000000000000000000000000000000000000000000000000000000000000000000000000000000000000000000000000000000000000000000000000000000000000000000000000000000000000000000000000000000000000000000000000000000000000000000000000000000000000000000000000000000000000000000000000000000000000000000000000000000000000000000000000000000000000000000000000000000000000000000000000000000000000000000000000000000000000000000000000000000000000000000000000000000000000000000000000000000000000000000000000000000000000000000000000000000000000000000000000000000000000000000000000000000000000000000000000000000000000000000000000000000000000000000000000000000000000000000000000000000000000000000000000000000000000000000000000000000000000000000000000000000000000000000000000000000000000000000000000000000000000000000000000000000000000000000000000000000000000000000000000000000000000000000000000000000000000000000000000000000000000000000000000000000000000000000000000000000000000000000000000000000000000000000000000000000000000000000000000000000000000000000000000000000000000000000000000025000000000000000000000000000000000000000000000000000000000000000000000000000000000000000000000000000000000000000000000000000000000000000000000000000000000000000000000000000000000000000000000000000000000000000000000000000000000000000000000000000000000000000000000000000000000000000000000000000000000000000000000000000000000000000000000000000000000000000000000000000000000000000000000000000000000000000000000000000000000000000000000000000000000000000000000000000000000000000000000000340000000000000000000000000000000000000000000000000000000000000000000000000000000000000000000000000000000000000000000000000000000000000000000000000000000000000000000000000000000000000000000000000000000000000000000000000000000000000000000000000000000000000000000000000000000000000000000000000000000000000000000000000000000000000000000000000000000000000000000000000000000000000000000000000000000000000000000000000000000000000000000000000000000000000000000000000000000000000000000000000000000000000000000000000000000000000000000000000000000000000000000000000000000000000000000000000000000000000000000000000000000000000000000000000000000000000000000000000000000000000000000000000000000000000000000000000000000000000000000000000000000000000000000000000000000000000000000000000000000000000000000000000000000000000000000000000000000000000000000000000000000000000000000000000000000000000000000000000000000000000000000000000000000000000000000000000000000000000000000000
#02657:23
#02652:000000000000000000000000000000000000000000000000000000000000000000000000000000000000000000000000000000000000000000000000000000000000000000000000000000000000000000000000000000000000000000000000000000000000000000000000000000000000000000000000000000000000000000000000000000000000000000000000000000000000000000000000000000000000000000000000000000000000000000000000000000000000000000000000000000000000000000000000000000000000000000000000000000000000000000000000000000000000000000000000000000000000000000000000000000000000000000000000000000000000000000000000000000000000000000000000000000000000000000000000000000000000000000000000000000000000000000000000000000000000000000000000000000000000000000000000000000000000000000000000000000000000000000000000000000000000000000000000000000000000000000000000000000000000000000000000000000000000000000000000000000000000000000000000000000000000000000000000000000000000000000000000000000000000000000000000000000000000000000000000005500000000000000000000000000000000000000000000000000000000000000000000000000000000000000000000000000000000000000000000000000000000000000000000000000000000000000000000000000000000000000000000000000000000000000000000000000000000000000000000000000000000000000000000000000000000000000000000000000000000000000000000000000000000000000000000000000000000000000000000000000000000000000000000000000000000000000000000000000000000000000000000000000000000000000000000000000000000000000000000340000000000000000000000000000000000000000000000000000000000000000000000000000000000000000000000000000000000000000000000000000000000000000000000000000000000000000000000000000000000000000000000000000000000000000000000000000000000000000000000000000000000000000000000000000000000000000000000000000000000000000000000000000000000000000000000000000000000000000000000000000000000000000000000000000000000000000000000000000000000000000000000000000000000000000000000000000000000000000000000
#0265b:0043000000000000
#02655:000000000000000000000000000000000000000000000000000000000000000000000000000000000000000000000000000000000000000000000000000000000000000000000000000000000000000000000000000000000000000000000000000000000000000000000000000000000000000000000000000000000000000000000000000000000000000000000000000000000000000000000000000000000000000000000000000000000000000000000000000000000000000000000000000000000000000000000000000000000000000000000000000000000000000000000000000000000000000000000000000000000000000000000000000000000000000000000000000000000000000000000000000000000000000000000000000000000000000000000000000000000000000000000000000000000000000000000000000000000000000000000000000000000000000000000000000000000000000000000000000000000000000000000000000000000000000000000000000000000000000000000000000000000000000000000000000000000000000000000000000000000000000000000000000000000000000000000000000000000000000000000000000000000000000000000000000000000000000000000000000000000000000000000000000000000000000000000000000000000000000000000000000000000000000000000000000000000000000000000000000000000000000000000000000000000000000000000000000000000000000000000000000000000000000000000000000000000000000000000000000000000000000000000000000000000000000000000000000000000000000000000000000000000000000000000000000000000000000000000000000000000000000000000000000000000000000000000000000000000000000000000000000000000000000000000000000000000000000000000000000000000000000000000000000000000000000000000000000000000000000000000000000000000000000000000000000000000000000000000000000000000000000000000000000000000000000000000000000000000000000000000000000000000000000000000000000000000000000000000000000000000000000000000000000000000000000000000000000000000000000000000000000000000000000000000000000000000000000000000000000000000000000000000000000000000000000000000000000000000000000000000000000000000000000000000000000000000000000000000000005500000000000000000000000000000000000000000000000000000000000000000000000000000000000000000000000000000000000000000000000000000000000000000000000000000000000000000000000000000000000000000000000000000000000000000000000000000000000000000000000000000000000000000000000000000000000000000000000000000000000000000000000000000000000000000000000000000000000000000000000000000000000000000000000000000000000000000000000000000000000000000000000000000000000000000000000000000000000000000000000000000000000000000000000000000000000000000000000000000000000000000000000000000000000000000000000000000000000000000000000000000000000000000000000000000000000000000000000000000000000000000000000000000000000000000000000000000000000000000000000000000000000000000000000000000000000000000000000000000000000000000000000000000000000000000000000000000000000000000000000000000000000000000000000000000000000000000000000000000000000000000000000000000000000000000000000000000000000000000000000000000000000000000000000000000000000000000000000000000000000000000000000000000000000000000000000000000000000000000000000000000000000000000000000000000000000000000000000000000000000000000000000000000000000000000000000000000000000000000000000000000000000000000000000000000000000000000000000000000000000000000000000000000000000000000000000000000000000000000000000000000000000000000000000000000000000000000000000000000000000000000000000000000000000000000000000000000000000000000000000000000000000000000000000000000000000000000000000000000000000000000000000000000000000000000000000000000000000000000000000000000000000000000000000000000000000000000000000000000000000000000000000000000000000000000000000000000000000000000000000000000000000000000000000000000000000000000000000000000000000000000000000000000000000000000000000000000000000000000000000000000000000000000000000000000000000000000000000000000000000000000000000000000000000000000000000000000000000000000000
#02659:0000000000250000
#02357:000000130000000000130053000000000000000000000000
#02352:130000000000000000000013000000000000000000000000
#02356:00130000
#0235b:000000000000000000000000002300000000000000000000
#02355:000000000000000000000000000000000000000000000033
#00355:0000000000530000
#0035b:000000000000000063000043000000000000000000000000
#00356:000000000000000063000043000000000000000000000000
#00352:000000000000000000000000000000000000002300000000000000000000000000000000000000000000000000000000
#00357:000000000000000000000000000000000000002300000000000000000000000000000000000000000000000000000000
#0125b:0023000000000000
#01252:000000000000000000000000000000000000000000000000000000000000000000000000000000000000002300000000
#01256:000000000063
#01457:33
#01452:0023002300000000
#0145b:00236300
#01456:000000000000000000000000000000000000000000000000000000000023000000000000000000000000000000000000
#0195c:000000000000000000000012000000000000000000000000
#01952:000000000000000000000012000000000000000000000000
#01955:000000000000000000000000000000000000000000000033
#00752:000000000000000053000033000000000000000000000000
#00757:000000000000000053000033000000000000000000000000
#0075b:000000000000000000000000000000000000002300000000000000000000000000000000000000000000000000000000
#00756:000000000000000000000000000000000000002300000000000000000000000000000000000000000000000000000000
#02152:000000000000000000000033000000000000000000530000
#02157:000000000000000000000033000000000000000000000000
#0215b:0000002300000000
#02256:33
#02252:00000013
#0225b:0000000000130013
#02257:000000000000000000000053000000000000000000000000
#02756:000000000000000000000000000000000000000000000000000000000023000000000000000000000000000000000000
#02752:0053
#02856:003300000000000000000000
#02857:000000000000004300000000
#0295b:630000000000000000000000000000000000000000000063
#0315b:00130000
#03152:00130000
#03452:14
#0345a:14
#0345b:00630000
#03456:0000002300000000
#03555:00330000
#03558:00430000
#06152:2300000000250000
#0615b:0043000000000000
#06156:000000000000000000000000000000000000000000000000000000000000000000000000000000000000000000000000000000000000000000000000000000000000000000000000000000000000000000000000000000000000000000000000000000000000000000000000000000000000000000000000000000000000000000000000000000000000000000000000000000000000000000000000000000000000000000000000000000000000000000000000000000000000000000000000000000000000000000000000000000000000000000000000000000000000000000000000000000000000000000000000430000000000000000000000000000000000000000000000000000000000000000000000000000000000000000000000000000000000000000000000000000000000000000000000000000000000000000000000000000000000000000000000000000000000000000000000000000000000000000000000000000000000000000000000000000000000000000000000000000000000000000000000000000000000000000000000000000000000000000000000000000000000000000000000000000000000000000000000000000000000000000000000000000000000000000000000000000000000000000000000000000000000000000000000000000000000000000000000000000000000000000000000000000000000000000000000000000000000000000000000000000000000000000000000000000000000000000000000000000000000000000000000000000000000000000000000000000000000000000000000000000000000000000000000000000000000000000000000000000000000000000000000000000000000000000000000000000000000000000000000000000000000000000000000000000000000000000000000000000000000000000000000000000000000000000000000000000000000000000000000000000000000000000000000000000000000000000000000000000000000000000000000000000000000000000000000000000000000000000000000000000000000000000000000000000000000000000000000000000000000000000000000000000000000000000000000000000000000000000000000000000000000000000000000000000000000000000000000000000000000000000000000000000000000000000000000000000000000000000000000000000000000000000000000000000000000000000000000000000000000000000000000000000000000000000000000000000000000000000000000006500000000000000000000000000000000000000000000000000000000000000000000000000000000000000000000000000000000000000000000000000000000000000000000000000000000000000000000000000000000000000000000000000000000000000000000000000000000000000000000000000000000000000000000000000000000000000000000000000000000000000000000000000000000000000000000000000000000000000000000000000000000000000000000000000000000000000000000000000000000000000000000000000000000000000000000000000000000000000000000000000000000000000000000000000000000000000000000000000000000000000000000000000000000000000000000000000000000000000000000000000000000000000000000000000000000000000000000000000000000000000000000000000000000000000000000000000000000000000000000000000000000000000000000000000000000000000000000000000000000000000000000000000000000000000000000000000000000000000000000000000000000000000000000000000000000000000000000000000000000000000000000000000000000000000000000000000000000000000000000440000000000000000000000000000000000000000000000000000000000000000000000000000000000000000000000000000000000000000000000000000000000000000000000000000000000000000000000000000000000000000000000000000000000000000000000000000000000000000000000000000000000000000000000000000000000000000000000000000000000000000000000000000000000000000000000000000000000000000000000000000000000000000000000000000000000000000000000000000000000000000000000000000000000000000000000000000000000000000000000000000000000000000000000000000000000000000000000000000000000000000000000000000000000000000000000000000000000000000000000000000000000000000000000000000000000000000000000000000000000000000000000000000000000000000000000000000000000000000000000000000000000000000000000000000000000000000000000000000000000000000000000000000000000000000000000000000000000000000000000000000000000000000000000000000000000000000000000000000000000000000000000000000000000000000000000000000000000000000000000
#06155:000000000000000000000000000000000000000000000000000000000000000000000000000000000000000000000000000000000000000000000000000000000000000000000000000000000000000000000000000000000000000000000000000000000000000000000000000000000000000000000000000000000000000000000000000000000000000000000000000000000000000000000000000000000000000000000000000000000000000000000000000000000000000000000000000000000000000000000000000000000000000000000000000000000000000000000000000000000000000000000000000000000000000000000000000000000000000000000000000000000000000000000000000000000000000000000000000000000000000000000000000000000000000000000000000000000000000000000000000000000000000000000000000000000000000000000000000000000000000000000000000000000000000000000000000000000000000000000000000000000000000000000000000000000000000000000000000000000000000000000000000000000000000000000000000000000000000000000000000000000000000000000000000000000000000000000000000000000000000000000000000000000000000000000000000000000000000000000000000000000000000000000000000000000000000000000000000000000000000000000000000000000000000000000000000000000000000000000000000000000000000000000000000000000000000000000000000000000000000000000000000000000000000000000000000000000000000000000000000000000000000000000000000000000000000000000000000000000000000000000000000000000000000000000000000000000000000000000000000000000000000000000000000000000000000000000000000000000000000000000000000000000000000000000000000000000000000000000000000000000000000000000000000000000000000000000000000000000000000000000000000000000000000000000000000000000000000000000000000000000000000000000000000000000000000000000000000000000000000000000000000000000000000000000000000000000000000000000000000000000000000000000000000000000000000000000000000000000000000000000000000000000000000000000000000000000000000000000000000000000000000000000000000000000000000000000000000000000000000000000000000000000000000000000000000000000000000000000000000000000000000000000000000000000000000000000000000000000000000000000000000000000000000000000000000000000000000000000000000000000000000000000000000000000000000000000000000000000000000000000000000000000000000000000000000000000000000000000000000000000000000000000000000000000000000000000000000000000000000000000000000000000000000000000000000000000000000000000000000000000000000000000000000000000000000000000000000000000000000000000025000000000000000000000000000000000000000000000000000000000000000000000000000000000000000000000000000000000000000000000000000000000000000000000000000000000000000000000000000000000000000000000000000000000000000000000000000000000000000000000000000000000000000000000000000000000000000000000000000000000000000000000000000000000000000000000000000000000000000000000000000000000000000000000000000000000000000000000000000000000000000000000000000000000000000000000000000000000000000000000000000000000000000000000000000000000000000000000000000000000000000000000000000000000000000000000000000000000000000000000000000000000000000000000000000000000000000000000000000000000000000000000000000000000000000000000000000000000000000000000000000000000000000000000000000000000000000000000000000000000000000000000000000000000000000000000000000000000000000000000000000000000000000000000000000000000000000000000000000000000000000000000000000000000000000000000000000000000000000000000000000000000000000000000000000000000000000000000000000000000000000000000000000000000000000000000000000000000000000000000000000000000000000000000000000000000000000000000000000000000000000000000000000000000000000000000000000000000000000000000000000000000000000000000000000000000000000000000000000000000000000000000000000000000000000000000000000000000000000000000000000000000000000000000000000000000000000000000000000000000000000000000000000000000000000000000000000000000000000000000000
#06159:000000000000000000000000000000000000000000000000000000000000000000000000000000000000000000000000000000000000000000000000000000000000000000000000000000000000000000000000000000000000000000000000000000000000000000000000000000000000000000000000000000000000000000000000000000000000000000000000000000000000000000000000000000000000000000000000000000000000000000000000000000000000000000000000000000000000000000000000000000000000000000000000000000000000000000000000000000000000000000000000000000000000000000000000000000000000000000000000000000000000000000000000000000000000000000000000000000000000000000000000000000000000000000000000000000000000000000000000000000000000000000000000000000000000000000000000000000000000000000000000000000000000000000000000000000000000000000000000000000000000000000000000000000000000000000000000000000000000000000000000000000000000000000000000000000000000000000000000000000000000000000000000000000000000000000000000000000000000000000000000006500000000000000000000000000000000000000000000000000000000000000000000000000000000000000000000000000000000000000000000000000000000000000000000000000000000000000000000000000000000000000000000000000000000000000000000000000000000000000000000000000000000000000000000000000000000000000000000000000000000000000000000000000000000000000000000000000000000000000000000000000000000000000000000000000000000000000000000000000000000000000000000000000000000000000000000000000000000000000000000000000000000000000000000000000000000000000000000000000000000000000000000000000000000000000000000000000000000000000000000000000000000000000000000000000000000000000000000000000000000000000000000000000000000000000000000000000000000000000000000000000000000000000000000000000000000000000000000000000000000000000000000000000000000000000000000000000000000000000000000000000000000000000000000000000000000000000000000000000000000000000000000000000000000000000000000000000000000000000000000
#0615a:00000044
#05857:000000000000000000000053000000000000000000000000
#0585b:000000430000000000430000002300000000000000000000
#05856:00430000
#05852:330000000000000000000033000000000000000000000000
#05855:000000000000000000000000000000000000000000000036
#05652:000000000000000000000033000000000000000000530000
#0565b:0000002300000000
#05657:000000000000000000000033000000000000000000000000
#06657:00220000000000000000000000000000
#06652:001c0000
#06552:000000000013006c
#0655b:000000000013000000000000000000130000000000000000
#06556:0000006300000000
#06557:000000000000000000000053000000000000000000000000
#05756:330000000000000000000000002300000000000000000000
#05752:00000033
#05757:0000000000000033
#0575b:000000000000000000000063000000430000000000000000
#06057:000000000000000000000000000000000000000000005300000000000000000000230000000000000000000000000000
#0605b:000000000000000000000000000000000000000000000000002300000000630000000000000000000000000000000000
#06252:000000000000000000000000000000000000000000000000000000000023000000000000000000000000000000000000
#06256:0063
#06352:004300000000000000000000
#0635b:000000000000003300000000
#06457:53
#06456:000000000000000000000000000000000000000000000063
#00056:000000000000000000000000000000000000000000000000002300000000000000000000000000000000000000000000
#00052:000000000000000000000053000000000000000000000000
#0015b:000000000000000000000000000000000000000000000000002300000000000000000000000000000000000000000000
#00157:000000000000000000000053000000000000000000000000
#00252:000000000000000000000053000000000000000000000000
#0025b:0000000000000063
#00457:000000000000000000000000000000000000000000000000002300000000000000000000000000000000000000000000
#0045b:000000000000000000000063000000000000000000000000
#00552:000000000000000000000000000000000000000000000000002300000000000000000000000000000000000000000000
#00556:000000000000000000000063000000000000000000000000
#0065b:000000000000000000000063000000000000000000000000
#00652:0000000000000053
#01557:000000000000000000000000002300000000000000000000
#0155b:430000000000000000000063000000000000000000000000
#0165b:000000000023000000000000000000000000000000000000000000000000000000000000000000000000000000000000
#01657:530000000033000000000000000000000000000000000000
#01656:000000000023000000000000000000000000000000000000000000000000000000000000000000000000000000000000
#01652:530000000033000000000000000000000000000000530000
#0175b:63
#01756:000000000063000000000000000000000000000000000000
#01757:005300
#01856:000000230000000000006300000000000000000000000000000000000000000000000000000000000000000000000000
#01852:530000000000000000000000002300000000000000000000000000000000000000000000000000000000000000000000
#01857:000000000000000000000000000000000000000000000000000000230000000000005300000000000000000000000000
#0185b:000000000000000000000000000000000000000000000000630000000000000000000000002300000000000000000000
#04158:0000002200000000
#04156:0000002200000000
#04152:53
#0405b:6300000000000063
#04056:0023630000000000
#04556:0000002200000000
#04558:0000002200000000
#0455b:63
#04452:5300000000000053
#04457:0023530000000000
#03952:53
#03957:0023
#0435b:63
#04356:0023
#06752:000000000000000000000000006800000000000000000000
#02058:000043000000000000000043000000000000000000000000
#02055:000000000000003300000000
#02458:000043000000000000000043000000000000000000000000
#02455:000000000000003300000000
#05452:000000000000000000000000000000000000000000000036
#05558:000046000000000000000046000000000000000000000000
#05552:000000000000003600000000
#05955:000046000000000000000046000036000000000000000000
#03052:000000000013000000000000000000130000000000000000
#03057:0000000000130000
#0305b:000000000000000000000063000000000000000000000000
#03056:0000006300000000
#01152:3333
#0115b:00430043
#00857:000000000053
#0085b:000000000000000000000000000000000000000000000000000000000000000000000000000000000000002300000000
#00852:0023000000000000
#01056:43
#01052:00235300
#01057:000000000000000000000000000000000000000000000000000000000023000000000000000000000000000000000000
#0105b:0023002300000000
#000320:000000000000000000000013000023000000000000000000
#000360:000000000000000000000000000000000000000000000000005300000000000000000000000000000000000000000000
#001370:000000000000000000000013000023000000000000000000
#0013b0:000000000000000000000000000000000000000000000000005300000000000000000000000000000000000000000000
#002320:000000000000000000000013000000000000000000000000
#002360:000000000000002300000000
#0023b0:0000000000000013
#003370:23
#003370:0013000000000000
#0033b0:000000000023000000000000000000000000000000000000
#003360:000000000000000013000023000000000000000000000000
#003320:000000000000000000000000000000000000005300000000000000000000000000000000000000000000000000000000
#0033b1:000000000000000013000023000000000000000000000000
#003371:000000000000000000000000000000000000005300000000000000000000000000000000000000000000000000000000
#003351:0000000000130033
#003391:0000000000000000000000000000000000000000000000533300000000000000
#003371:000000000000000000000000000000000000003300000000
#003361:000000000033
#003341:000000000000000000000033
#003331:000000000000000000000000000000000000000000000033
#004321:23
#0043b1:000000000000000000000013000023000000000000000000
#004371:000000000000000000000000000000000000000000000000005300000000000000000000000000000000000000000000
#005361:000000000000000000000013000023000000000000000000
#005321:000000000000000000000000000000000000000000000000005300000000000000000000000000000000000000000000
#0063b1:000000000000000000000013000000000000000000000000
#006371:000000000000002300000000
#006321:0000000000000013
#007361:23
#007361:0013000000000000
#007321:000000000023000000000000000000000000000000000000
#007371:000000000000000013000023000000000000000000000000
#0073b1:000000000000000000000000000000000000005300000000000000000000000000000000000000000000000000000000
#007320:000000000000000013000023000000000000000000000000
#007360:000000000000000000000000000000000000005300000000000000000000000000000000000000000000000000000000
#008320:0013000000000000
#008360:00230000
#0083b1:00130000
#008371:002300
#008361:0013
#008321:000000000000002300000000
#008321:0000000000130000
#008361:000000000000000000000000000000000023000000000000
#008361:00000013
#008321:000000000023
#008370:000000000013
#0083b0:000000000000000000000000000000000000000000000000000000000000000000000000000000000000005300000000
#008360:000000000000000000000000000000000000000000000023
#0103b0:0013000000000000
#010370:00230000
#010321:00130000
#010361:0000002300000000
#0103b0:0000001300000000
#010370:0023
#010321:000000000000000000000000130000000023000000000000
#010371:000000000000000000000000000000000000000000000000000000000053000000000000000000000000000000000000
#0113b1:1323000000000000
#011321:0000132300000000
#0113b1:0000000013230000
#0123b1:0013000000000000
#012371:00230000
#012320:00130000
#012360:002300
#012370:0013
#0123b0:000000000000002300000000
#0123b0:0000000000130000
#012370:000000000000000000000000000000000023000000000000
#012370:00000013
#0123b0:000000000023
#012361:000000000013
#012321:000000000000000000000000000000000000000000000000000000000000000000000000000000000000005300000000
#012371:000000000000000000000000000000000000000000000023
#014321:0013000000000000
#014361:00230000
#0143b0:00130000
#014370:0000002300000000
#014321:0000001300000000
#014361:0023
#0143b0:000000000000000000000000130000000023000000000000
#014360:000000000000000000000000000000000000000000000000000000000053000000000000000000000000000000000000
#0153b0:000000000000000000000013000000230000000000000000
#015370:000000000000000000000000005300000000000000000000
#016320:130000000023000000000000000000000000000000000000
#016360:000000000053000000000000000000000000000000000000000000000000000000000000000000000000000000000000
#016371:130000000023000000000000000000000000000000000000
#0163b1:000000000053000000000000000000000000000000000000000000000000000000000000000000000000000000000000
#0163b1:0000001323000000
#016360:0013
#016320:000000000000002300000000
#016320:0000000000000013
#017360:23
#0173b1:13
#017371:0023000000000000
#017361:000000000013000000000000000000000000000000000000
#017321:002300
#017370:001300
#0173b0:000000000000000000000023000000000000000000000000
#018320:1323000000000000
#018360:00530000000000000000000000000000
#018371:0013000000000000
#0183b1:000000000023000000000000000000000000000000000000
#018360:000000000013000023000000000000000000000000000000
#018320:000000000000000000000000005300000000000000000000000000000000000000000000000000000000000000000000
#0183b0:0000000013230000
#018370:00000000000000000053000000000000
#018361:0000000000130000
#018321:000000000000000000000000000000000023000000000000
#018370:000000000000000000000000000000000013000023000000
#0183b0:000000000000000000000000000000000000000000000000000000000000000000000000005300000000000000000000
#018380:000000000000000000000000000000000000000000000012
#019380:0022000000000000
#019380:000000000012000000000000000000000000000000000000
#0193c0:000000000000520000000022000000000000000000000000
#019361:001200
#019321:000000000000000000520022000000000000000000000000
#0203b1:000000000000000000000000000000000013230000000000
#020351:000000000000000000000000000000000000000013230000
#0203b1:000000000000000000000000000000000000000000000013
#0213b1:23
#021321:000013230000000000000000000000000000000000000000
#021371:000000000013230000000000000000000000000000000000
#021361:000000000000000013230000000000000000000000000000
#0213b0:0000001300000000
#021370:000000000000000000000023000000000000000000000000
#021350:000000000000000000132300
#021320:0000000000000013
#022360:23
#022370:000000000000000000000013000000000000000000000000
#0223b0:0000000000230000
#022361:0000000000130000
#022321:000000000000000053230000
#022370:00000013
#0223b0:000000000000000000000000000000000000005300230000
#022361:0000000000000013
#022321:000000000000000000000053
#023321:23
#0233b0:13
#023370:005300230000000000000000000000000000000000000000
#023321:0013000000000000
#023361:000053230000000000000000
#0233b0:00130000
#023370:000000000000005300230000000000000000000000000000
#023370:000000000000000000000013000000230000000000000000
#0233b0:000000000000000000000000005300000000000000000000
#024380:000000000000000000000000000000000013230000000000
#024320:000000000000000000000000000000000000000013230000
#0243b0:000000000000000000000000000000000000000000000013
#0253b0:23
#025340:000013230000000000000000000000000000000000000000
#025370:000000000013230000000000000000000000000000000000
#025340:000000000000000013230000000000000000000000000000
#025360:000000000000000000000013000000000000000000000000
#025320:000000000000002300000000
#025371:000000000000000000000000000013230000000000000000
#025320:0000000000130000
#025360:00000023
#025390:000000000000000000000000000000000000000013230000
#025320:000000000000000000000000000000000000000000000013
#026320:23
#026371:13
#0263b1:0023000000000000
#026321:000000000000000000000000000000000000000000000000000000000000000000000000000000000000000000000000000000000000000000000000000000000000000000000000000000000000000000000000000000000000000000000000000000000000000000000000000000000000000000000000000000000000000000000000000000000000000000000000000000000000000000000000000000000000000000000000000000000000000000000000000000000000000000000000000000000000000000000000000000000000000000000000000000000000000000000000000000000000000000000000000000000000000000000000000000000000000000000000000000000000000000000000000000000000000000000000000000000000000000000000000000000000000000000000000000000000000000000000000000000000000000000000000000000000000000000000000000000000000000000000140000000000000000000000000000000000000000000000000000000000000000000000000000000000000000000000000000000000000000000000000000000000000000000000000000000000000000000000000000000000000000000000000000000000000000000000000000000000000000000000345500000000000000000000000000000000000000000000000000000000000000000000000000000000000000000000000000000000000000000000000000000000000000000000000000000000000000000000000000000000000000000000000000000000000000000000000000000000000000000000000000000000000000000000000000000000000000000000000000000000000000000000000000000000000000000000000000000000000000000000000000000000000000000000000000000000000000000000000000000000000000000000000000000000000000000000000000000000000000000055240000000000000000000000000000000000000000000000000000000000000000000000000000000000000000000000000000000000000000000000000000000000000000000000000000000000000000000000000000000000000000000000000000000000000000000000000000000000000000000000000000000000000000000000000000000000000000000000000000000000000000000000000000000000000000000000000000000000000000000000000000000000000000000000000000000000000000000000000000000000000000000000000000000000000000000000000000000000000000000000
#026361:000000000000000000000000000000000000000000000000000000000000000000000000000000000000000000000000000000000000000000000000000000000000000000000000000000000000000000000000000000000000000000000000000000000000000000000000000000000000000000000000000000000000000000000000000000000000000000000000000000000000000000000000000000000000000000000000000000000000000000000000000000000000000000000000000000000000000000000000000000000000000000000000000000000000000000000000000000000000000000000000000000000000000000000000000000000000000000000000000000000000000000000000000000000000000000000000000000000000000000000000000000000000000000000000000000000000000000000000000000000000000000000000000000000000000000000000000000000000000000000000000000000000000000000000000000000000000000000000000000000000000000000000000000000000000000000000000000000000000000000000000000000000000000000000000000000000000000000000000000000000000000000000000000000000000000000000000000000000000000000000000000000000000000000000000000000000000000000000000000000000000000000000000000000000000000000000000000000000000000000000000000000000000000000000000000000000000000000000000000000000000000000000000000000000000000000000000000000000000000000000000000000000000000000000000000000000000000000000000000000000000000000000000000000000000000000000000000000000000000000000000000000000000000000000000000000000000000000000000000000000000000000000000000000000000000000000000000000000000000000000000000000000000000000000000000000000000000000000000000000000000000000000000000000000000000000000000000000000000000000000000000000000000000000000000000000000000000000000000000000000000000000000000000000000000000000000000000000000000000000000000000000000000000000000000000000000000000000000000000000000000000000000000000000000000000000000000000000000000000000000000000000000000000000000000000000000000000000000000000000000000000000000000000000000000000000000000000000000000000000000000000000000000000000000000000000000000000000000000000000000000000000000000000000000000000000000000000000000000000000000000000000000000000000000000000000000000000000000000000000000000000000000000000000000000000000000000000000000000000000000000000000000000000000000000000000000000000000000000000000000000000000000000000000000000000000000000000000000000000000000000000000000000000000000000000000000000000000000000000000000000000000000000000000000000000000000000000000000000000000055000000000000000000000000000000000000000000000000000000000000000000000000000000000000000000000000000000000000000000000000000000000000000000000000000000000000000000000000000000000000000000000000000000000000000000000000000000000000000000000000000000000000000000000000000000000000000000000000000000000000000000000000000000000000000000000000000000000000000000000000000000000000000000000000000000000000000000000000000000000000000000000000000000000000000000000000000000000000000000000000000000000000000000000000000000000000000000000000000000000000000000000000000000000000000000000000000000000000000000000000000000000000000000000000000000000000000000000000000000000000000000000000000000000000000000000000000000000000000000000000000000000000000000000000000000000000000000000000000000000000000000000000000000000000000000000000000000000000000000000000000000000000000000000000000000000000000000000000000000000000000000000000000000000000000000000000000000000000000000000000000000000000000000000000000000000000000000000000000000000000000000000000000000000000000000000000000000000000000000000000000000000000000000000000000000000000000000000000000000000000000000000000000000000000000000000000000000000000000000000000000000000000000000000000000000000000000000000000000000000000000000000000000000000000000000000000000000000000000000000000000000000000000000000000000000000000000000000000000000000000000000000000000000000000000000000000000000000000000000000000
#026360:00001424
#026350:000000000000000000000000000000000000000000000000000000000000000000000000000000000000000000000000000000000000000000000000000000000000000000000000000000000000000000000000000000000000000000000000000000000000000000000000000000000000000000000000000000000000000000000000000000000000000000000000000000000000000000000000000000000000000000000000000000000000000000000000000000000000000000000000000000000000000000000000000000000000000000000000000000000000000000000000000000000000000000000000000000000000000000000000000000000000000000000000000000000000000000000000000000000000000000000000000000000000000000000000000000000000000000000000000000000000000000000000000000000000000000000000000000000000000000000000000000000000000000000000000000000000000000000000000000000000000000000000000000000000000000000000000000000000000000000000000000000000000000000000000000000000000000000000000000000000000000000000000000000000000000000000000000000000000000000000000000000000000000000000000000000000000000000000000000000000000000000000000000000000000000000000000000000000000000000000000000000000000000000000000000000000000000000000000000000000000000000000000000000000000000000000000000000000000000000000000000000000000000000000000000000000000000000000000000000000000000000000000000000000000000000000000000000000000000000000000000000000000000000000000000000000000000000000000000000000000000000000000000000000000000000000000000000000000000000000000000000000000000000000000000000000000000000000000000000000000000000000000000000000000000000000000000000000000000000000000000000000000000000000000000000000000000000000000000000000000000000000000000000000000000000000000000000000000000000000000000000000000000000000000000000000000000000000000000000000000000000000000000000000000000000000000000000000000000000000000000000000000000000000000000000000000000000000000000000000000000000000000000000000000000000000000000000000000000000000000000000000000000000000005500000000000000000000000000000000000000000000000000000000000000000000000000000000000000000000000000000000000000000000000000000000000000000000000000000000000000000000000000000000000000000000000000000000000000000000000000000000000000000000000000000000000000000000000000000000000000000000000000000000000000000000000000000000000000000000000000000000000000000000000000000000000000000000000000000000000000000000000000000000000000000000000000000000000000000000000000000000000000000000000000000000000000000000000000000000000000000000000000000000000000000000000000000000000000000000000000000000000000000000000000000000000000000000000000000000000000000000000000000000000000000000000000000000000000000000000000000000000000000000000000000000000000000000000000000000000000000000000000000000000000000000000000000000000000000000000000000000000000000000000000000000000000000000000000000000000000000000000000000000000000000000000000000000000000000000000000000000000000000055000000000000000000000000000000000000000000000000000000000000000000000000000000000000000000000000000000000000000000000000000000000000000000000000000000000000000000000000000000000000000000000000000000000000000000000000000000000000000000000000000000000000000000000000000000000000000000000000000000000000000000000000000000000000000000000000000000000000000000000000000000000000000000000000000000000000000000000000000000000000000000000000000000000000000000000000000000000000000000000000000000000000000000000000000000000000000000000000000000000000000000000000000000000000000000000000000000000000000000000000000000000000000000000000000000000000000000000000000000000000000000000000000000000000000000000000000000000000000000000000000000000000000000000000000000000000000000000000000000000000000000000000000000000000000000000000000000000000000000000000000000000000000000000000000000000000000000000000000000000000000000000000000000000000000000000000000000000000000000000000
#026390:0000000000550000
#027320:000000000000000000000000130000000023000000000000
#027360:000000000000000000000000000000000000000000000000000000000053000000000000000000000000000000000000
#028320:13
#028360:005323000000000000000000000000000000000000000000
#0283b0:0013
#028370:000000000000000000000000005323000000000000000000
#0293b0:13
#029370:0023000000000000
#029320:000000000000000000000013230000000000000000000000
#0293b0:000000000000000000000000000013230000000000000000
#029320:000000000000000000000000000000000013230000000000
#0293b0:000000000000000000000000000000000000000000000013
#030370:002300000000000000000000
#030370:000000130023000000000000000000000000000000000000
#030360:0000001300000000
#030320:0000000000230000
#0303b1:000000000000000000000013000000000000000000000000
#030371:0000000000230000
#030381:0000000000000013
#031381:33
#0313b1:005300000000230000000000000000000000000000000000
#031350:13
#031320:005300000000230000000000000000000000000000000000
#031360:000000000000000000000014240000000000000000000000
#031360:000000000000000000000000000014240000000000000000
#031360:000000000000000000000000000000000014240000000000
#031360:000000000000000000000000000000000000000014240000
#031360:000000000000000000000000000000000000000000000014
#032360:24
#032360:000014240000000000000000000000000000000000000000
#0323b1:0013230000000000
#0323b1:000000000000000000000013230000000000000000000000
#032321:000000000000000000000000000013230000000000000000
#0323b1:000000000000000000000000000000000013230000000000
#032321:000000000000000000000000000000000000000013230000
#0323b1:000000000000000000000000000000000000000000000013
#0333b1:23
#033321:000013230000000000000000000000000000000000000000
#033360:0014240000000000
#033320:000000000000000000140000005400240000000000000000
#033360:000000000054540000000000
#0333a1:000000000000140054240000
#033361:000000000000000000000000005400540000000000000000
#033360:00000014
#033320:000000000000000000000000000000000000005400000000
#034320:24
#033361:0000000000000014
#0333a1:000000000000000000000054
#0343a1:24
#0343b1:00132300
#034361:0000005300000000
#034320:0000000013230000
#0343b0:0000000000001323
#034321:0000000000000013
#035321:53
#035351:005300000000230000000000000000000000000000000000
#0353b0:13
#035380:005300000000230000000000000000000000000000000000
#035370:000000000000000000000012220000000000000000000000
#035360:000000000000000000000000000014240000000000000000
#035350:000000000000000000000000000000000016260000000000
#035350:000000000000000000000000000000000000000016260000
#035340:000000000000000000000000000000000000000000000018
#036340:28
#036340:000018280000000000000000000000000000000000000000
#036321:0012220000000000
#036321:000000000000000000000012220000000000000000000000
#0363c1:000000000000000000000000000012220000000000000000
#036321:000000000000000000000000000000000013230000000000
#0363b1:000000000000000000000000000000000000000013230000
#036321:000000000000000000000000000000000000000000000014
#037321:24
#0373a1:000014240000000000000000000000000000000000000000
#037360:0014000000000000
#037370:00220000
#0383b0:13
#038370:005300230000000000000000000000000000000000000000
#038320:00130000
#038360:000000000000005300230000000000000000000000000000
#038370:0013
#0383b0:000000000000000000000000005300230000000000000000
#038360:00000013
#038320:000000000000000000000000000000000000005300230000
#039320:13
#039370:0053
#040320:23
#0403b1:13230000
#040361:0053000000000000
#040360:00130000
#040320:0000002300000000
#0403b0:0000000000000013
#041360:0000005200000000
#0413c0:00000022
#041321:13000022
#041381:0000005200000000
#0423b1:0000000013230000
#042321:0000000000001323
#0433b1:13
#043361:0053
#0443b1:23
#044320:13230000
#044370:0053000000000000
#044371:00130000
#0443b1:0000002300000000
#044321:0000000000000013
#045381:0000005200000000
#045321:00000022
#0453b0:13
#045360:0000005200000000
#0453c0:00000022
#047340:12
#047360:0022
#0473a1:0012
#048381:22
#048360:12220000
#048381:00122200
#048340:000000122200
#048381:000000000000000012220000
#048360:0000000000001222
#048381:0000000000000012
#049381:22
#049340:12
#049360:0022
#049381:00001222
#049340:0000000000001222
#049381:0000000000000012
#050381:22
#050360:12220000
#0503a1:00122200
#050340:0012
#051340:22
#0513a1:12
#051381:0022
#051340:0012
#052360:22
#0523a1:12220000
#052360:00122200
#0523a1:0000000012220000
#052340:0000000000122200
#052381:0000000000001222
#052320:0000000000000012
#053320:22
#053381:1222
#0533c1:00520000
#053360:0012
#053320:00000052
#054360:22
#054381:1222
#0543c1:00520000
#0553b1:000000000000000000000000000000000013230000000000
#055351:000000000000000000000000000000000000000016260000
#055381:000000000000000000000000000000000000000000000013
#056381:23
#056321:000016260000000000000000000000000000000000000000
#0563b1:000000000013230000000000000000000000000000000000
#056351:000000000000000016260000000000000000000000000000
#0563b0:0000001300000000
#056370:000000000000000000000023000000000000000000000000
#056320:000000000000000000132300
#056320:0000000000000013
#057360:23
#0573b0:000000000000000000000013000000230000000000000000
#057360:000000000000000000000000005300000000000000000000
#057321:0000000000132300
#057361:000053
#057370:0000000000001323
#0573b0:000000000000000000000000000000000000005300000000
#057321:0000000000000013
#057361:000000000000000000000053
#058321:23
#0583b0:1323000000000000
#058370:005300000000000000000000000000000000000000000000
#058361:0013230000000000
#058321:005300000000
#0583b0:0000132300000000
#058370:000000000000005300000000000000000000000000000000
#058370:000000000000000000000013000000230000000000000000
#0583b0:000000000000000000000000005300000000000000000000
#059350:000000000000000000000000000000000016260000000000
#059320:000000000000000000000000000000000000000013230000
#059380:000000000000000000000000000000000000000000000016
#060380:26
#060350:000013230000000000000000000000000000000000000000
#060350:000000000016260000000000000000000000000000000000
#060320:000000000000000013230000000000000000000000000000
#060370:000000000000000000000013000023000000000000000000
#0603b0:000000000000000000000000000000000000000000000000005300000000000000000000000000000000000000000000
#060321:000000000000000000000000000013230000000000000000
#0603b0:0000000000132300
#060370:00000000000000000000005300000000
#060350:000000000000000000000000000000000000000016260000
#060350:000000000000000000000000000000000000000000000016
#061350:26
#061321:13
#061361:0023000000000000
#0613a1:0000001434002400
#061391:000000000000000000000000000000000000000000000000000000000000000000000000000000000000000000000000000000000000000000000000000000000000000000000000000000000000000000000000000000000000000000000000000000000000000000000000000000000000000000000000000000000000000000000000000000000000000000000000000000000000000000000000000000000000000000000000000000000000000000000000000000000000000000000000000000000000000000000000000000000000000000000000000000000000000000000000000000000000000000000000000000000000000000000000000000000000000000000000000000000000000000000000000000000000000000000000000000000000000000000000000000000000000000000000000000000000000000000000000000000000000000000000000000000000000000000000000000000000000000000000000000000000000000000000000000000000000000000000000000000000000000000000000000000000000000000000000000000000000000000000000000000000000000000000000000000000000000000000000000000000000000000000000000000000000000000000000000000000000000000000005500000000000000000000000000000000000000000000000000000000000000000000000000000000000000000000000000000000000000000000000000000000000000000000000000000000000000000000000000000000000000000000000000000000000000000000000000000000000000000000000000000000000000000000000000000000000000000000000000000000000000000000000000000000000000000000000000000000000000000000000000000000000000000000000000000000000000000000000000000000000000000000000000000000000000000000000000000000000000000055000000000000000000000000000000000000000000000000000000000000000000000000000000000000000000000000000000000000000000000000000000000000000000000000000000000000000000000000000000000000000000000000000000000000000000000000000000000000000000000000000000000000000000000000000000000000000000000000000000000000000000000000000000000000000000000000000000000000000000000000000000000000000000000000000000000000000000000000000000000000000000000000000000000000000000000000000000000000000000000000
#061351:000000000000000000000000000000000000000000000000000000000000000000000000000000000000000000000000000000000000000000000000000000000000000000000000000000000000000000000000000000000000000000000000000000000000000000000000000000000000000000000000000000000000000000000000000000000000000000000000000000000000000000000000000000000000000000000000000000000000000000000000000000000000000000000000000000000000000000000000000000000000000000000000000000000000000000000000000000000000000000000000000000000000000000000000000000000000000000000000000000000000000000000000000000000000000000000000000000000000000000000000000000000000000000000000000000000000000000000000000000000000000000000000000000000000000000000000000000000000000000000000000000000000000000000000000000000000000000000000000000000000000000000000000000000000000000000000000000000000000000000000000000000000000000000000000000000000000000000000000000000000000000000000000000000000000000000000000000000000000000000000000000000000000000000000000000000000000000000000000000000000000000000000000000000000000000000000000000000000000000000000000000000000000000000000000000000000000000000000000000000000000000000000000000000000000000000000000000000000000000000000000000000000000000000000000000000000000000000000000000000000000000000000000000000000000000000000000000000000000000000000000000000000000000000000000000000000000000000000000000000000000000000000000000000000000000000000000000000000000000000000000000000000000000000000000000000000000000000000000000000000000000000000000000000000000000000000000000000000000000000000000000000000000000000000000000000000000000000000000000000000000000000000000000000000000000000000000000000000000000000000000000000000000000000000000000000000000000000000000000000000000000000000000000000000000000000000000000000000000000000000000000000000000000000000000000000000000000000000000000000000000000000000000000000000000000000000000000000000000000000000000000000000000000000000000000000000000000000000000000000000000000000000000000000000000000000000000000000000000000000000000000000000000000000000000000000000000000000000000000000000000000000000000000000000000000000000000000000000000000000000000000000000000000000000000000000000000000000000000000000000000000000000000000000000000000000000000000000000000000000000000000000000000000000000000000000000000000000000000000000000000000000000000000000000000000000000000000000000000000000055000000000000000000000000000000000000000000000000000000000000000000000000000000000000000000000000000000000000000000000000000000000000000000000000000000000000000000000000000000000000000000000000000000000000000000000000000000000000000000000000000000000000000000000000000000000000000000000000000000000000000000000000000000000000000000000000000000000000000000000000000000000000000000000000000000000000000000000000000000000000000000000000000000000000000000000000000000000000000000000000000000000000000000000000000000000000000000000000000000000000000000000000000000000000000000000000000000000000000000000000000000000000000000000000000000000000000000000000000000000000000000000000000000000000000000000000000000000000000000000000000000000000000000000000000000000000000000000000000000000000000000000000000000000000000000000000000000000000000000000000000000000000000000000000000000000000000000000000000000000000000000000000000000000000000000000000000000000000000000000000000000000000000000000000000000000000000000000000000000000000000000000000000000000000000000000000000000000000000000000000000000000000000000000000000000000000000000000000000000000000000000000000000000000000000000000000000000000000000000000000000000000000000000000000000000000000000000000000000000000000000000000000000000000000000000000000000000000000000000000000000000000000000000000000000000000000000000000000000000000000000000000000000000000000000000000000000000000000000000000000
#061360:000000000000000000000000000000000000000000000000000000000000000000000000000000000000000000000000000000000000000000000000000000000000000000000000000000000000000000000000000000000000000000000000000000000000000000000000000000000000000000000000000000000000000000000000000000000000000000000000000000000000000000000000000000000000000000000000000000000000000000000000000000000000000000000000000000000000000000000000000000000000000000000000000000000000000000000000000000000000000000000000000000000000000000000000000000000000000000000000000000000000000000000000000000000000000000000000000000000000000000000000000000000000000000000000000000000000000000000000000000000000000000000000000000000000000000000000000000000000000000000000000000000000000000000000000000000000000000000000000000000000000000000000000000000000000000000000000000000000000000000000000000000000000000000000000000000000000000000000000000000000000000000000000000000000000000000000000000000000000000000000000000000000000000000000000000000000000000000000000000000000000000000000000000000000000000000000000000000000000000000000000000000000000000000000000000000000000000000000000000000000000000000000000000000000000000000000000000000000000000000000000000000000000000000000000000000000000000000000000000000000000000000000000000000000000000000000000000000000000000000000000000000000000000000000000000000000000000000000000000000000000000000000000000000000000000000000000000000000000000000000000000000000000000000000000000000000000000000000000000000000000000000000000000000000000000000000000000000000000000000000000000000000000000000000000000000000000000000000000000000000000000000000000000000000000000000000000000000000000000000000000000000000000000000000000000000000000000000000000000000000000000000000000000000000000000000000000000000000000000000000000000000000000000000000000000000000000000000000000000000000000000000000000000000000000000000000000000000000000000000000145500000000000000000000000000000000000000000000000000000000000000000000000000000000000000000000000000000000000000000000000000000000000000000000000000000000000000000000000000000000000000000000000000000000000000000000000000000000000000000000000000000000000000000000000000000000000000000000000000000000000000000000000000000000000000000000000000000000000000000000000000000000000000000000000000000000000000000000000000000000000000000000000000000000000000000000000000000000000000000000000000000000000000000000000000000000000000000000000000000000000000000000000000000000000000000000000000000000000000000000000000000000000000000000000000000000000000000000000000000000000000000000000000000000000000000000000000000000000000000000000000000000000000000000000000000000000000000000000000000000000000000000000000000000000000000000000000000000000000000000000000000000000000000000000000000000000000000000000000000000000000000000000000000000000000000000000000000000000000000055240000000000000000000000000000000000000000000000000000000000000000000000000000000000000000000000000000000000000000000000000000000000000000000000000000000000000000000000000000000000000000000000000000000000000000000000000000000000000000000000000000000000000000000000000000000000000000000000000000000000000000000000000000000000000000000000000000000000000000000000000000000000000000000000000000000000000000000000000000000000000000000000000000000000000000000000000000000000000000000000000000000000000000000000000000000000000000000000000000000000000000000000000000000000000000000000000000000000000000000000000000000000000000000000000000000000000000000000000000000000000000000000000000000000000000000000000000000000000000000000000000000000000000000000000000000000000000000000000000000000000000000000000000000000000000000000000000000000000000000000000000000000000000000000000000000000000000000000000000000000000000000000000000000000000000000000000000000000000000000000
#061320:0000000000550000
#0623b0:1323000000000000
#062320:0000132300000000
#062360:000000000000000000000000130000000023000000000000
#062320:000000000000000000000000000000000000000000000000000000000053000000000000000000000000000000000000
#063360:13
#063320:005323000000000000000000000000000000000000000000
#063370:0013
#0633b0:000000000000000000000000005323000000000000000000
#064370:13
#0643b0:0023000000000000
#064320:000000000013230000000000000000000000000000000000
#0643b0:000000000000000013230000000000000000000000000000
#064320:000000000000000000000013230000000000000000000000
#0643b0:000000000000000000000000000013230000000000000000
#064320:000000000000000000000000000000000013230000000000
#064360:000000000000000000000000000000000000000000000013
#065320:002300000000000000000000
#065320:0013000000000000
#065360:000000000023000000000000000000000000000000000000
#065360:0000001300000000
#065320:0000000000230000
#065371:000000000000000000000013000000000000000000000000
#0653b1:0000000000230000
#065321:000000000000001c
#066371:00520000000000000000000000000000
#066321:002c0000
#066361:000000000000000000000012
#067361:0022000000000000
#0673c0:000000120000000000000000002200000000000000000000
#067321:000000000000000000000000001800000000000000000000
#070321:22
