This file was generated by Ched 2.6.4.0.
#TITLE ""
#ARTIST ""
#DESIGNER ""
#DIFFICULTY 0
#PLAYLEVEL
#SONGID ""
#WAVE ""
#WAVEOFFSET 0
#JACKET ""
#REQUEST "ticks_per_beat 480"
#00002: 4
#BPM01: 109
#00008: 01
#TIL00: ""
#HISPEED 00
#MEASUREHS 00
#0001a:1414
#00014:00140014
#00118:1414
#00112:00140014
#0021a:1414
#00214:00140014
#0031a:14
#00312:00140000
#00318:0014
#00412:1414
#00418:00140014
#00410:41
#00514:1414
#0051a:00140014
#00612:1414
#00618:00140014
#00712:14
#0071a:00140000
#00714:0014
#0081a:14
#00812:00140000
#00818:0014
#00814:00000014
#0091a:14
#00912:00140000
#00918:0014
#00914:00000014
#0101a:14
#01012:0014
#01118:14140000
#01114:00001414
#01218:14
#01214:00140000
#0121a:0014
#01212:00000014
#01210:41
#01318:14
#01314:00140000
#0131a:0014
#01312:00000014
#01418:14
#01414:0014
#01518:1414
#01514:00140014
#02014:00140000
#0201a:0014
#02012:00000014
#02018:24
#02010:41
#0211a:14000014
#02116:00140000
#02112:0014
#02314:00000014
#02316:14
#02312:00140000
#0231a:0014
#02412:00140000
#02418:0014
#02414:00000014
#0241a:24
#0251a:14
#02516:00140014
#02512:0014
#0261a:14
#02614:00140000
#0221a:00000014
#0271a:00000014
#0281a:14
#02812:00141400
#02818:00000014
#02810:41
#02914:14
#0291a:00140000
#02916:0014
#02912:00000014
#03812:1414
#0381a:00140014
#04018:00140000
#04014:0014
#0401a:00000014
#04414:00140000
#04418:0014
#04412:00000014
#05218:00140000
#05212:0014
#0521a:00000014
#05518:00140000
#05512:0014
#0551a:00000014
#05514:24
#0551f:21
#05612:14000014
#05616:00140000
#0561a:0014
#05610:41
#05818:00000014
#05816:14
#0581a:00140000
#05812:0014
#0591a:00140000
#05914:0014
#05918:00000014
#05912:24
#06012:14
#06016:00140014
#0601a:0014
#06112:14
#06118:00140000
#05712:00000014
#06212:00000014
#06312:14
#0631a:00141400
#06314:00000014
#06418:14
#06412:00140000
#0641a:0014
#06414:00000014
#04114:14
#04112:0014
#0431a:14
#04318:0014
#04518:14
#0451a:0014
#03912:14
#03914:0014
#03910:41
#0361a:0014
#03612:00000014
#03614:14
#03212:0014
#0321a:00000014
#03218:14
#03312:14
#03318:0014
#03314:00000014
#03114:00000014
#03118:0014
#0341a:14
#03518:00000014
#03514:0014
#0471f:11
#06512:0000000000000024
#04154:64
#04152:0024
#0435a:64
#04358:0024
#04558:54
#0455a:0024
#03952:54
#03954:0024
#0105a:14
#01458:14
#05554:14
#05952:14
#02058:14
#0245a:14
#03152:14
#06552:0000000000000014
#016380:14
#0163a0:0024
#017340:14
#017320:0024
#0183a0:14
#018380:0024
#019320:14
#019340:0024
#022320:1424
#022340:00340000
#026380:0014
#0263a0:00000024
#027340:1424
#027320:00340000
#030380:14
#0303a0:00240000
#030340:0014
#030320:00000034
#031320:24
#034320:00140000
#034340:0024
#0343a0:00000014
#035380:24
#0373a0:14
#037380:0024
#039320:14
#039340:0054
#040320:24
#041340:14
#041320:0054
#042340:24
#0433a0:14
#043380:0054
#0443a0:24
#045380:14
#0453a0:0054
#046380:24
#047320:14
#047340:0034
#048320:34
#048340:0024
#0493a0:14
#049380:0034
#0503a0:34
#050380:0024
#051340:14
#051320:0034
#052340:24
#053340:14
#053320:0024
#054380:14
#0543a0:0024
#0573a0:1424
#057380:00340000
#061340:0014
#061320:00000024
#062380:1424
#0623a0:00340000
#065380:14
#0653a0:00240000
#065340:0014
#065320:0000000000003424
#0663a0:000000000000140000000000003400000000000000000000
#067370:000000340000000000000000003400000000000000000000
#0703b0:23
