This file was generated by Ched 2.7.0.0.
#TITLE ""
#ARTIST ""
#DESIGNER ""
#DIFFICULTY 0
#PLAYLEVEL
#SONGID ""
#WAVE ""
#WAVEOFFSET 0
#JACKET ""
#REQUEST "ticks_per_beat 480"
#00002: 4
#BPM01: 180
#00008: 01
#TIL00: ""
#HISPEED 00
#MEASUREHS 00
#00412:14
#00518:14
#00614:14
#0071a:14
#00812:14
#00918:14
#01014:14
#0111a:14
#01212:14
#01210:41
#01318:14
#0161a:14
#01714:14
#02014:14
#0211a:14
#02418:14
#02512:14
#02812:14
#02818:0014
#0281f:11
#02912:14
#0301a:14
#03014:0014
#0311a:14
#03812:0016
#03818:26
#0381f:21
#03918:16
#03912:0016
#03910:41
#04218:1616
#04312:1616
#04618:0016
#04612:26
#04712:16
#04718:0016
#05012:1616
#05118:1616
#05412:0016
#05418:26
#05518:16
#05512:0016
#05618:1616
#05818:0016
#05812:26
#05912:16
#05918:0016
#06012:1616
#06010:41
#06218:2616
#06312:1616
#06418:16
#06412:0016
#06612:2616
#06718:1616
#06812:16
#06818:0016
#0701a:14
#07010:41
#07114:14
#07218:14
#07312:14
#00312:24
#0031a:24
#03614:24
#02210:41
#05210:41
#0003a0:1434
#0013a0:3434
#0023a0:24
#014320:14
#015320:24
#0183a0:14
#0193a0:24
#022340:14
#023340:24
#026380:14
#027380:24
#032320:14
#033320:24
#034380:14
#035380:24
#036340:14
#037340:24
#040380:1626
#041320:1626
#044380:16363636
#045380:26
#048320:1626
#049380:1626
#052320:16363636
#053320:3626
#057380:1626
#061320:1626
#065380:1626
#069320:1626
#0743a0:14
#0753a0:24
#076340:14
#077340:34000034
#079340:0024
