This file was generated by Ched 2.7.0.0.
#TITLE ""
#ARTIST ""
#DESIGNER ""
#DIFFICULTY 0
#PLAYLEVEL
#SONGID ""
#WAVE ""
#WAVEOFFSET 0
#JACKET ""
#REQUEST "ticks_per_beat 480"
#00002: 4
#BPM01: 180
#00008: 01
#TIL00: ""
#HISPEED 00
#MEASUREHS 00
#0031c:00001212
#00319:1525150000000000
#00312:2515250000000000
#0041b:00000013
#00418:0013
#00415:0000000000130000
#00412:2400240000000013
#0041a:24240000
#0051b:13000033
#00512:0013000000000000
#00518:0000130000130000
#00515:0000001300000013
#00618:0000001300130013
#00615:0013000000001300
#00612:00330000
#00718:0013000000000000
#00715:0000130000130000
#00712:2300002400003333
#0071a:0000002400000000
#0071b:23
#0121b:0013000013000000
#01212:0000001300130000
#01218:13000013
#01215:1300130000000013
#01210:41
#01312:00130000
#01318:0000001300000000
#0131b:0013000000131300
#01315:0013
#02015:00001313
#02018:0000000000130013
#02012:24240000
#0201a:24240000
#02115:00131300
#02118:0000001300000000
#02112:0013000000000000
#0211b:0000000000131300
#02912:0013
#02918:0013000000130000
#02915:00130013
#0291b:0000001300000013
#03215:0013131300130000
#03218:2600000013000013
#0321b:00130013
#03212:00000013
#03318:0013131300130000
#03312:26130013
#03315:0000000013000013
#0331b:00000023
#03513:0014001400000000
#03519:0014001400000000
#03512:00002424
#0351a:00002424
#04212:1300000000130000
#04218:00000013000013001300000013000000
#04215:00000033000000000000000000001300
#0421b:13
#04314:0000000000000013
#04315:00000013000013000000000000000000
#0431b:13000013
#04312:1313
#04318:00000033000000000000000000000000
#0441b:1313
#04415:0000130000130000
#04418:0013001300001300
#04412:1300000013000013
#05212:1323
#05218:0013001300001300
#0521b:2313
#05215:0000130000130013
#05210:41
#05012:13000013
#0501b:1300001313000000
#05017:00000013
#05418:0000000013130000
#05415:0000000000001313
#05412:24241300
#0541a:24240000
#0551b:1300001300003300
#05518:0013000000130000
#05515:00130033
#05512:1300001300130000
#05615:0013000000130013
#05618:00330013
#0561b:0013000000000000
#05612:00330000
#05718:0013000000000000
#05715:00130000
#05712:2300002400000000
#0571a:0000002400000000
#0571b:23
#06012:1300000013000013
#06015:0013001300001300
#06018:0000130000130000
#0601b:1300000013000013
#06010:41
#0631b:1300001300003300
#06318:0013000000130000
#06315:00130033
#06312:0000001300130000
#0641b:0013000000001300
#06415:0013000000000000
#06416:00000013
#06418:00330000
#06412:00330000
#00812:00240013
#00815:0013
#00818:0000000000130000
#0081b:0000000000000013
#0081a:24240000
#00912:13
#0091b:0013000000000000
#00915:0000130000130013
#00918:0000001300001300
#01012:0000131300000013
#0101b:1313000013000000
#01015:0000000000130000
#01018:00000013
#01112:0025250013000000
#0111b:0013
#01118:0000000000131300
#01115:00000000000000000000001300001300
#01119:0025250000000000
#0141b:0000001300130000
#01415:13000013
#01418:1300130000000013
#01412:0013000013000000
#0151b:00131300
#01512:0000001300000013
#01515:0013000000130000
#01518:00000013
#02612:0013000000130000
#02618:00131300
#02615:0000001300000013
#0261b:13000013
#01715:1323001300000013
#01718:2313002300001300
#01712:0000000000130000
#02718:0023000000001300
#02712:00000013
#02719:00230000
#0271a:0000002300000000
#0271b:0023
#03015:0000000013130000
#03018:00130000
#0301b:0013
#03012:2300230000000024
#0301a:0000003300330000
#0311b:0013
#03115:0013000000130000
#03118:00130013
#03112:0000001300000013
#0341a:14
#03419:0015000000000000
#03412:0000000014152600
#03418:0000260000340000
#03414:0034000000000000
#03816:1400001314000000
#03817:0000000000000013
#03814:00130000
#03819:00000013
#03812:23
#0381f:21
#03916:1400001314000000
#03917:0000000000000013
#03914:00130000
#03919:00000013
#03910:41
#04114:00130000
#04116:0013
#04115:00000013
#04118:0000000000130013
#04117:23
#04919:00130000
#0491b:0013
#04918:00000013
#04915:0000000000130013
#04912:23
#05116:13
#0511b:13
#05112:0013
#05117:0013
#05918:0000130000130013
#05915:0013000000001300
#05912:1300001300000000
#0591b:1300001300000000
#05815:0000000013130000
#05818:0000000000001313
#0581b:0013
#0581a:24240000
#05812:24240000
#06212:2413
#06217:24
#0621a:00240000
#06215:00240000
#06518:0013000000000000
#06515:00130000
#06512:2300002400000000
#0651a:0000002400000000
#0651b:23
#06715:0013000000130013
#06718:00130013
#0671b:0000001300000000
#06712:1300001300000000
#0691b:0013
#06912:0024240013000000
#06915:0000000000131300
#06918:00000000000000000000001300001300
#0691a:0024240000000000
#00212:24140000
#00219:00001424
#00213:00002414
#0021a:00240000
#0161b:13230000
#01612:23130000
#0161a:0000000013231300
#01613:0000000023132300
#01812:1414240000000000
#0181a:0000000014142400
#01818:1414240000000000
#01814:0000000014142400
#03612:0000001400000014
#0361a:0014000000140000
#03618:2424
#03614:24240024
#00018:13
#01915:13132300
#01918:0013001300000000
#0191b:00000023
#02218:00001313
#02215:0000000000130013
#0221a:24240000
#02212:24240000
#02210:41
#02318:00130013
#02315:0000001300130013
#0231b:0013000000000000
#02312:0013
#02518:1323001300000013
#02515:2313002300001300
#0251b:0000000000130000
#02412:13230000
#0241b:23130000
#02413:0000000013231300
#0241a:0000000023132300
#02812:00000000330000133300000000000000
#02817:0000000013130000
#0281f:11
#02816:23
#0281b:23230000
#0281a:0000000000000024
#0461a:14000013
#04612:0000001314000000
#0461b:0000000000000013
#04613:00130000
#04616:23
#0471b:13000013
#04712:00130000
#04717:00130000
#04714:0013
#04719:0000000013000013
#04716:00000013
#04718:0000001300000000
#04715:0000000000130000
#0661b:0013
#0661a:24
#06615:24
#06612:00240000
#06617:00240000
#0681b:1300000013000013
#06818:0013001300001300
#06815:0000130000130000
#06812:1300000013000013
#07012:0013000013000000
#0701b:0000001300130000
#07015:23000013
#07018:1300230000000013
#07010:41
#0711b:00130000
#07115:0000001300000000
#07112:0013000000131300
#07118:0013
#07212:0000001300130000
#07218:23000013
#07215:1300230000000013
#0721b:0013000013000000
#07312:00131300
#0731b:0000001300000013
#07318:0013000000130000
#07315:00000013
#07518:1323002300001300
#07515:2313001300000013
#07512:0000000000130000
#07412:13230000
#0741b:23130000
#07413:0000000013231300
#0741a:0000000023132300
#0761b:0013000000130000
#07615:00131300
#07618:0000001300000023
#07612:13000013
#06112:0014240023000000
#0611a:0024140000000000
#06115:0000000000230000
#06118:00000023
#0611b:0000000000000023
#04518:26
#04516:00260000
#04514:0026
#04512:00000026
#03718:2424000000000000
#03714:0000242400000000
#03719:0025
#03712:0025
#04017:2323
#04016:00230023
#04012:24
#04812:2323
#0481b:00230023
#04817:23
#05312:23000023
#05315:0023
#0531b:23000023
#07717:00000023
#07715:0023000000000000
#07714:00230000
#07713:0000002300000000
#07712:0023
#0075a:0000001400000000
#00752:0000001400000000
#00755:0000000000530000
#0035c:00001212
#00352:00150000
#00359:00150000
#03759:0015
#03752:0015
#05052:63000063
#05057:00000063
#05552:0000000000530000
#05558:0000000000530000
#0555b:0000000000000013
#05555:0000000000000013
#0575a:0000005400000000
#05752:0000006400000000
#06352:0000000000530000
#06358:0000000000530000
#0635b:0000001300000013
#06355:0000000000000013
#0645b:0053000000000000
#06455:0053000000000000
#06452:0000001300000000
#06458:0000001300000000
#01258:53
#01255:0000530000000053
#01252:0000002300000000
#0125b:0023000000000000
#01458:0000630000000063
#01455:63
#01452:0023000000000000
#0145b:0000002300000000
#02052:14140000
#0205a:14140000
#02058:0000000000000053
#02155:0053
#01758:0000006300000000
#03658:5454
#03654:00640064
#0365a:0024000000240000
#03652:0000002400000024
#04057:5353
#04056:00630053
#0405b:00130013
#04052:1413
#04157:53
#04152:13
#04558:16
#04556:00160000
#04554:0016
#04552:00000016
#04852:6363
#0485b:00530063
#04857:1313
#04856:00130013
#04952:63
#04957:13
#05156:53
#0515b:53
#05152:0053
#05157:0053
#05352:53
#0535b:53
#0565b:0063000000000000
#05655:0063000000000000
#05652:0000001300000000
#05658:0000001300000000
#0655a:0000005400000000
#06552:0000006400000000
#00655:0053000000000000
#00652:0000001300000000
#00558:0000000000530000
#0055b:0000000000000013
#03552:00001414
#0355a:00001414
#04252:53
#0435b:53
#04352:0053
#03856:5454
#03956:5454
#06252:14
#06257:14
#06255:00140000
#0625a:00140000
#0285a:0000000000000014
#02856:53
#02852:00000000000000230000000000000000
#03052:0000000000000014
#03058:0000530000000013
#0305b:0053
#0545a:14140000
#05452:14140000
#0585a:14140000
#05852:14140000
#01355:0063
#02655:0000000000000053
#01955:0053
#02255:0000000000000063
#0225a:14140000
#02252:14140000
#02555:0000005300000000
#03458:00160016
#03452:00160016
#0465a:64
#04652:0054
#0665a:14
#06655:14
#06652:00140000
#06657:00140000
#07058:0000530000000063
#07052:0023000000000000
#0705b:0000002300000000
#07055:53
#07255:0000530000000053
#0725b:0023000000000000
#07252:0000002300000000
#07258:53
#07158:0053
#07558:0000006300000000
#06752:0000001300000000
#07658:0000000000000053
#000350:13
#000320:0023
#000371:0013
#0013b1:23
#001350:14
#001320:0024
#001361:0014
#0023a1:24
#005381:0000000000130000
#0053b1:0000000000003323
#006351:0013000000000000
#006321:0000332300000000
#007351:0000000000130000
#007321:0000000000003333
#008321:23
#012381:13230000
#0123b1:0053000000000000
#012350:00132300
#012320:0000005300000000
#012350:0000000000000013
#013320:0023000000000000
#013350:0013
#013320:00000023
#014350:13230000
#014320:0053000000000000
#014381:00132300
#0143b1:0000005300000000
#014381:0000000000000013
#0153b1:0023000000000000
#017381:0000001300000000
#0173b1:0000000000230000
#019351:0013
#019321:00000023
#020381:0000000000000013
#0213b1:0023000000000000
#021351:0013
#021321:00000023
#022351:0000000000000013
#023321:0023000000000000
#025351:0000001300000000
#025321:0000000000230000
#026351:0000000000000013
#027321:0033333323000000
#028361:1300000000000023
#028321:00000000330000533300000000000000
#030381:0000130000003323
#0303a1:0000003300330000
#0303b1:0033
#034341:1434000000000000
#034321:00260000
#034381:0000000014342600
#036381:14240000
#0363a1:0034000000000000
#036340:00142400
#036320:0000003400000000
#036381:00001424
#0363a1:0000000000340000
#036340:00000014
#036320:0000000000000034
#037340:24
#038360:14
#0383a0:0000003424000000
#038361:0014
#038321:0000000000000034
#039321:24
#039360:14
#0393a0:0000003424000000
#039361:0014
#039321:0000000000000034
#040321:24
#040370:13
#0403b0:00230000
#040361:00130000
#040321:0023
#040370:0013
#0403b0:00000023
#040361:00000013
#041321:23
#041370:13
#0413b0:0023
#042320:13
#042350:00000033000033002300000000000000
#0433b0:13
#043380:00000033000033002300000000000000
#043321:0013
#043361:00000023
#0463a1:14
#046361:0000003424000000
#046320:0014
#046360:0000000000000034
#047360:24
#048320:13
#048360:00230000
#0483b1:00130000
#048371:0023
#048320:0013
#048360:00000023
#0483b1:00000013
#049371:23
#049320:13
#049360:0023
#050320:13
#050360:0000003323000000
#050370:00000013
#0513b0:33
#051370:0000002300000000
#050321:00000013
#051361:33
#051321:0000002300000000
#051321:0013
#051361:00000023
#051370:0013
#0513b0:00000023
#053320:13
#053350:0000002300000000
#0533b1:13
#053381:0000003323000000
#055321:0000000000130000
#055351:0000000000003323
#055380:0000000000130000
#0553b0:0000000000003323
#0563b0:0013000000000000
#056380:0000332300000000
#056351:0013000000000000
#056321:0000332300000000
#0573a1:0000001400000000
#057381:00000024
#057320:0000001400000000
#057340:00000024
#0623b0:00001323
#062380:0000000000330000
#062321:00000013
#062351:0000000000000033
#063321:23
#063321:0000000000130000
#063351:0000000000003323
#063380:0000000000130000
#0633b0:0000000000003323
#0643b0:0013000000000000
#064380:0000332300000000
#064351:0013000000000000
#064321:0000332300000000
#0653a1:0000001400000000
#065381:00000024
#065320:0000001400000000
#065340:00000024
#066320:00001323
#066350:0000000000330000
#0663b1:00000013
#066381:0000000000000033
#0673b1:23
#070351:13230000
#070321:0053000000000000
#070380:00132300
#0703b0:0000005300000000
#070380:0000000000000013
#0713b0:0023000000000000
#071380:0013
#0713b0:00000023
#072380:13230000
#0723b0:0053000000000000
#072351:00132300
#072321:0000005300000000
#072351:0000000000000013
#073321:0023000000000000
#075381:0000001300000000
#0753b1:0000000000230000
#076381:0000000000000013
#0773b1:0033333323000000
#077321:00000014
#079331:0022
