This file was generated by Ched 2.7.0.0.
#TITLE ""
#ARTIST ""
#DESIGNER ""
#DIFFICULTY 0
#PLAYLEVEL
#SONGID ""
#WAVE ""
#WAVEOFFSET 0
#JACKET ""
#REQUEST "ticks_per_beat 480"
#00002: 4
#BPM01: 180
#00008: 01
#TIL00: ""
#HISPEED 00
#MEASUREHS 00
#00315:00001212
#00319:25250000
#00312:0025000000000000
#00415:00000013
#0041b:23231300
#00418:0000000000000013
#00412:23231300
#00618:0000000000000013
#00615:00330013
#0061b:0000000000130000
#00612:0013000000000000
#00718:0013002600000000
#00715:00130000
#00712:23
#01212:1313
#01218:1300000000130000
#01215:00130013
#0121b:0000130000000013
#01210:41
#01312:00130000
#01318:0000001300000000
#01315:0013
#02912:0013
#02918:0013000000130000
#02915:00130013
#0291b:0000001300000013
#03218:0013131300130000
#03215:0013
#03212:00000013
#0321b:0000000000000013
#03315:0013131300130000
#0331b:00000013
#03312:0000000000000013
#03318:0013
#0421b:0000000000130000
#04212:13000013
#04218:0000000000000013
#04215:00000033000000000000000000000000
#04318:0000000000000013
#04315:13
#04312:00000033000000000000000000000000
#04415:0000130000000013
#0441b:0013000013000000
#04418:0000001300001300
#04412:1300000000130000
#05215:0013000000130000
#05218:00130013
#05212:0000001300000013
#0521b:0023
#05210:41
#05418:0000000000130000
#05415:00000013
#0541b:0000000000000013
#05412:2413
#0541a:00240000
#05518:0013000000130000
#05515:00130000
#05512:1300001300000000
#0551b:0000001300003300
#0561b:0000000000130000
#05618:0000000000000013
#05615:0013000000001300
#05612:00330000
#05718:0013000000000000
#05715:00130000
#05717:00000000000000000000001400000000
#05712:23
#0571a:0000002400000000
#06015:0013000000130000
#06018:00130013
#06012:0000001300000013
#0601b:1300000013000013
#06010:41
#01015:0000131300130000
#0101b:1313000013000000
#01018:00000013
#01012:0000000000000013
#0151b:00131300
#01512:0000001300000013
#01515:0000000000130000
#01518:00000013
#0261b:0013000000130000
#02615:00131300
#02618:0000001300000013
#02612:13000013
#01715:2300130000000013
#01718:0023002300000000
#02718:00000013
#02712:00000013
#0271b:0033333300000000
#03018:00001313
#0301b:0000000000130000
#03015:0000001300000023
#03012:00230000
#03112:0013
#03118:0013000000130000
#03115:00130013
#0311b:0000001300000013
#0051b:0000000000130000
#00518:00000033
#00515:0033330000000000
#00912:0000000000130000
#00918:0033330000001300
#00915:0000000000000013
#01915:13130000
#01918:0013001300000000
#01912:0023
#02312:00130000
#02315:0000001300000013
#0231b:0000000000130000
#02318:00001313
#02518:2300000000000013
#0251b:0000002300000000
#02515:0023002300000000
#02818:00000000000000133300000000000000
#02812:00000000000000133300000000000000
#0281f:11
#0281b:23
#02815:23
#04712:00130000
#04717:00130000
#04714:0013
#04719:0013
#04716:00000013
#0471b:00000013
#0501b:13000013
#05015:13000013
#07612:1313
#07618:0013001300000023
#07615:00130013
#0761b:0000000000130000
#0751b:0000000000000013
#07518:23130000
#07515:0023002300000000
#00818:00000013
#00812:23231300
#00815:0000000000000013
#0081b:23231300
#0141b:1313
#01415:1300000000130000
#01418:00130013
#01412:0000130000000013
#01616:00130000
#01614:0013
#01612:00000013
#0161b:00230000
#01619:0023
#01617:00000023
#0201b:0013
#02015:0000000000130000
#02018:00000013
#02012:0000240000000013
#0201a:24
#0211b:00130000
#02115:0000001300000000
#02118:0013
#02212:2413
#02218:0000000000130000
#02215:00000013
#0221b:0000000000000013
#0221a:00240000
#02210:41
#02417:00130000
#02419:0013
#0241b:00000013
#02412:00230000
#02414:0023
#02416:00000023
#03417:0014
#0341a:24
#03612:14
#03615:0014
#0371b:0000001300000000
#03715:0013
#03718:0000000000130000
#03712:00000013
#0381a:14
#03817:0014
#0381f:21
#0391a:14
#03917:0014
#03910:41
#0461a:14
#04617:0014
#05118:13
#05112:13
#05115:0000003313000000
#0511b:0000003313000000
#05815:0000000000130000
#05818:00000013
#05812:0000240000000013
#0581b:0013
#05915:0013000000000013
#05918:00130013
#0591b:1300001300000000
#05912:0000001300130000
#06215:0000000000130000
#06218:00000013
#06212:0000240000000013
#0621b:0013
#0621a:24
#06315:0013000000130000
#06318:00130000
#0631b:1300001300000000
#06312:0000001300003300
#06515:00001300000000000000001400000000
#06518:00130000
#0651b:23
#06512:0000002400000000
#06418:0013000000001300
#06412:00000013
#0641b:00330000
#06618:0000000000130000
#06615:00000013
#0661b:0000000000000013
#06612:0013
#0661a:00240000
#06718:0013000000000013
#06715:00130013
#06712:1300001300000000
#0671b:0000001300130000
#06818:0013000000130000
#06815:00130013
#0681b:0000001300000013
#06812:1300000013000013
#0701b:1313
#07015:1300000000130000
#07018:00130013
#07012:0000130000000013
#07010:41
#0711b:00130000
#07115:0000001300000000
#07118:0013
#07312:00131300
#0731b:0000001300000013
#07318:0000000000130000
#07315:00000013
#07212:1313
#07218:1300000000130000
#07215:00130013
#0721b:0000130000000013
#07417:00130000
#07419:0013
#0741b:00000013
#07412:00230000
#07414:0023
#07416:00000023
#00213:00240024
#00219:0024
#01119:0024000000000000
#01113:00240000
#04518:26
#04516:00260000
#04514:0026
#04512:00000026
#06118:0024000000000000
#06114:00240000
#0531b:23
#03512:0024
#0401a:24
#04014:00240000
#04018:0024
#04012:00000024
#0411a:24
#04812:24
#04818:00240000
#04814:0024
#0481a:00000024
#04912:24
#06914:0024000000000000
#06918:00240000
#01818:0033000000330000
#01812:0033000000330000
#0771b:0033333300000000
#00758:0000001600000000
#0575a:0000005400000000
#05757:00000000000000000000002400000000
#00359:00150000
#0125b:0000000000000053
#0205a:14
#02052:0000140000000063
#01758:0000006300000000
#05558:0000000000530000
#0555b:0000000000000013
#05655:0063000000000000
#05652:0000001300000000
#00652:0063000000000000
#00655:0000001300000000
#0055b:0000000000630000
#00558:0000000000000013
#04252:53
#04355:53
#03055:0000000000000013
#01355:0063
#0285b:53
#02855:53
#02858:00000000000000230000000000000000
#02852:00000000000000230000000000000000
#0535b:53
#01452:0000000000000063
#02158:0053
#0225b:0000000000000053
#0225a:00140000
#02252:14
#0255b:0000005300000000
#02555:0000005300000000
#02658:0000000000000063
#0345a:54
#03457:0024
#03652:54
#03655:0024
#0405a:14
#04054:00140000
#04058:0014
#04052:00000014
#0385a:54
#03857:0054
#0395a:54
#03957:0054
#0415a:54
#0465a:54
#04657:0054
#04852:14
#04858:00140000
#04854:0014
#0485a:00000014
#04952:64
#0505b:53
#05055:53
#05158:53
#05152:53
#0515b:0023
#05155:0023
#05852:00340000
#0585a:44
#05452:34
#0545a:00440000
#06355:0000000000630000
#06352:0000000000000013
#06458:0053000000000000
#0645b:0000001300000000
#06555:00000000000000000000002400000000
#06552:0000006400000000
#0625a:44
#06252:00340000
#0665a:00440000
#06652:34
#07052:0000000000000063
#07158:0053
#0725b:0000000000000053
#07555:0000005300000000
#07658:0000000000000053
#000350:1323
#000381:0014
#001381:24
#001330:1525
#001381:0016
#002381:26
#005321:13
#005351:0033332300000000
#0053b1:0000000000130000
#005381:0000000000003323
#006321:0013000000000000
#006351:0000332300000000
#0093b1:13
#009381:0033332300000000
#0123b1:0000000000000013
#013381:0023000000000000
#013351:0013
#013321:00000023
#014321:0000000000000013
#015351:0023000000000000
#017381:0000001300000000
#0173b1:0000000000230000
#018321:1333000000000000
#018351:00230000
#018380:1333000000000000
#0183b0:00230000
#0183b0:0013
#018380:0000000000332300
#018351:0013
#018321:0000000000332300
#020321:0000000000000013
#021351:0023000000000000
#021381:0013
#0213b1:00000023
#0223b1:0000000000000013
#023381:0023000000000000
#0253b1:0000001300000000
#025381:0000000000230000
#025350:0000001300000000
#025320:0000000000230000
#026380:0000000000000013
#0273b0:0033333323000000
#0283b0:1300000000000023
#028380:00000000000000533300000000000000
#028351:1300000000000023
#028321:00000000000000533300000000000000
#0343a1:14
#034371:0054
#0353a1:24
#035321:0014
#036321:34
#036351:0054
#037321:24
#0383a1:1400000000000034
#038371:0000003434000000
#0393a1:3400000000000034
#039371:0000003434000000
#0403a1:24
#0413a1:14
#041361:0024
#042321:13
#042351:00000033000033002300000000000000
#043351:13
#043321:00000033000033002300000000000000
#0463a1:1400000000000034
#046371:0000003434000000
#0473a1:24
#049321:14
#049361:0024
#050351:13
#050321:0000003323000000
#0503b0:13
#050380:0000003323000000
#051380:13
#0513b0:0000003333000000
#052380:23
#051321:13
#051351:0000003333000000
#052321:23
#0533b1:13
#053381:0000003323000000
#055381:0000000000130000
#0553b1:0000000000003323
#056351:0013000000000000
#056321:0000332300000000
#0573a1:0000001400000000
#057371:00000000000000000000005400000000
#0583a1:24
#063351:0000000000130000
#063321:0000000000003323
#064381:0013000000000000
#0643b1:0000332300000000
#065321:0000001400000000
#065351:00000000000000000000005400000000
#066321:24
#070321:0000000000000013
#071351:0023000000000000
#071381:0013
#0713b1:00000023
#0723b1:0000000000000013
#073381:0023000000000000
#075351:0000001300000000
#075321:0000000000230000
#076381:0000000000000013
#0773b1:0033333323000000
#077321:00000013
#079321:0023
