This file was generated by Ched 2.7.0.0.
#TITLE ""
#ARTIST ""
#DESIGNER ""
#DIFFICULTY 0
#PLAYLEVEL
#SONGID ""
#WAVE ""
#WAVEOFFSET 0
#JACKET ""
#REQUEST "ticks_per_beat 480"
#00002: 4
#BPM01: 180
#00008: 01
#TIL00: ""
#HISPEED 00
#MEASUREHS 00
#0031c:00001212
#00318:1425160012001200
#00313:0015000000000000
#00314:24
#00312:00260000
#00418:00000013
#0041b:0013
#00415:0000000000130013
#00412:2413
#00417:23
#0041a:00240000
#00416:00230000
#0051b:1300001300000000
#00515:0013000000000000
#00518:00130000
#00512:1300001300130000
#00516:0000000000000013
#00514:00000013
#00618:0000000000130013
#00615:00000013
#00617:0000001300000000
#0061b:0013000000000000
#00619:00130000
#00612:0000000000130000
#00718:0012120000000000
#00716:00000012000000000000000000002200
#00712:2300002400220000
#0071a:0000002400000000
#0071b:23
#00714:00000022
#01215:0000000000130000
#01218:00000013
#0121b:1300130000000013
#01217:0013001300000000
#01212:13131300
#01210:41
#01316:00130013
#01319:0000001300000000
#01312:0013000013000000
#01314:0000000000130000
#0131b:00130000
#03512:0013000024000000
#03516:0013000024002400
#0351b:0000001300000000
#03517:0000001300000000
#0351a:00000024
#0441b:0000001300000013
#04416:13
#04412:0013000000130000
#05218:0013000000130000
#05215:0000001300000013
#05212:13231323
#0521b:23132313
#05210:41
#05017:13000013
#0501b:0000001313000000
#05012:13131300
#05015:0013001300130013
#0541b:23001313
#05416:2400240000140014
#05412:00231313
#0561b:1313000000130000
#05615:00000013
#05618:0000000000000013
#05616:1313000000000000
#05612:0000000013130000
#05617:0000131313000000
#05718:0012120000000000
#05716:00000012000023000000000000001300
#0571b:2300001300003300
#05714:00000013
#05712:23
#06017:0000130000130000
#06012:00130000
#06014:0018001800000000
#0601b:1300000013000013
#06016:0013
#06019:00000013
#06010:41
#00917:0000000000000013
#00912:1300001300000000
#00918:0013000000000000
#00915:00130000
#0091b:1300001300130000
#00919:00000013
#01016:1313000000000000
#01017:0000131300000000
#01012:0000131313000013
#01018:0000000000130000
#01015:00000013
#0101b:1313000013000013
#01112:0025250012000012
#0111c:0000000012000012
#01118:0000000000121200
#01116:00000000000000000000001200000000
#01119:0025250000000000
#02712:00000013
#02716:0022000000001300
#02718:00220000
#0271a:0000002200000000
#0271c:0022
#02917:0013001300000000
#02915:00000000000000000000000000000013
#0291b:00130013
#02916:0013
#02912:0000000000130000
#02918:0000000000000013
#04117:00130013
#04119:0000000000130000
#0411b:0013
#04114:0000000000000013
#04112:00000013
#04116:2313
#04716:13
#0471b:1300001300130013
#04715:00132300
#04712:0000001300130013
#04718:00230023
#05517:0000000000130000
#05512:1300130000130000
#05515:0013001300000000
#05516:0000000000001313
#00815:00000013
#00812:00241300
#00818:0000000000130013
#0081b:0013
#00817:00230000
#00816:23
#01715:0000002300000013
#01718:00000000000023000000000000000013
#01712:23000014
#0171a:00000014
#01716:1414000000000000
#0171b:0023000000000000
#02618:0000001300001300
#02612:1300130000131300
#0261b:0013130013000013
#02615:00000000000000130000000000001300
#02515:0000002300000013
#02518:00000000000023000000000000000013
#02512:0023000000001400
#0251a:00000014
#02516:1414000000000000
#0251b:23
#03017:00130000
#0301b:1300001300131300
#03015:0013
#03012:2300231300130024
#03218:0013001300130013
#03214:0013001300130000
#03212:23131313
#03215:00000000000000000000000000000013
#0321b:23131300
#03315:0013001300130000
#03319:0013001300130000
#0331b:23131313
#03312:23131300
#03316:00000000000000000000000000000012
#03318:0000000000000012
#03816:13
#0381b:2300001300000000
#03817:0013
#03812:0000000023000013
#0381f:21
#03916:13
#0391b:2300001300000000
#03917:0013
#03912:0000000023000013
#03910:41
#04015:0013001300130013
#04018:0013001300130013
#04012:2323
#0401b:23230023
#04218:00130000
#0421b:1300001300001300
#04216:13000013
#04215:00000013000000000000000000000000
#04212:0013
#04217:0013
#04214:0000000000130013
#04219:0000000000130013
#04315:00130000
#04312:1300001300001300
#04317:13000013
#04318:00000013000000000000000000000000
#0431b:0013
#04316:0013
#04319:0000000000130013
#04314:0000000000130013
#0461b:13
#04616:2300001300000000
#04612:0013
#04617:0000000023000013
#04816:00130013
#04814:0013001300130013
#04812:2313
#0481b:00130013
#04817:0013
#04819:0000000000130013
#04914:0000000000130000
#04912:0013
#04919:0000000000000013
#0491b:00000013
#04916:00130013
#04918:0013
#04917:23
#06112:0014240012000012
#0611a:0024140000002200
#06116:00000000000000002200001200000000
#06118:0000000000220000
#0611c:0000000000000022
#06818:0013000000130000
#06812:23002313
#06815:0000001300000013
#0681b:00230023
#0691c:0012120000000000
#06919:0000000012000012
#06918:00000000000000000000001200000000
#06915:0000000012000012
#06916:0000000000121200
#06912:0022220000000000
#07516:1414000000000012
#07518:00000000000000000000000000000012
#0751a:00000014
#07512:2300002300001400
#0751b:0023002300000000
#07618:0000131212000016
#07616:12000000000000120000000000000000
#0761b:0013000000000000
#07612:0000000000130026
#07615:00000013
#03612:0023001400230014
#0361a:0014000000140000
#03618:2424
#03614:24240024
#0361b:0000002300000023
#04512:0016000000002600
#04516:0000260000160000
#04518:2600000000000016
#04514:0000001626000000
#0591b:1300130000130000
#05918:0013001300000000
#06712:0013130000130000
#06716:13
#06717:00130000
#0671b:0000001300000000
#0001c:12
#01418:0000000000130000
#01415:00000013
#01412:1300130000000013
#01416:0013001300000000
#0141b:13131300
#01517:00130000
#01514:0000001300000000
#0151b:0013000000000000
#01512:00130000
#01516:0013
#01618:00132200
#01616:0012
#01619:0000000000130000
#0161a:24000024
#01612:00240024
#01614:0000000000230000
#02018:2300000000130000
#02015:23000013
#02012:0000230013000013
#0201b:0000230013000013
#02117:0000130000130000
#02114:0000001300000000
#0211b:0013000013001300
#02112:0000130000130000
#02116:1313
#02215:2300000000130000
#02218:23000013
#0221b:0000230013000013
#02212:0000230013000013
#02210:41
#02312:0013130000000000
#02318:0000001300000000
#0231b:00131300
#02317:13
#02812:00000000340000143400000000000000
#02817:24231300
#0281b:2300000000130023
#0281f:11
#03116:0013001300000000
#03118:00000000000000000000000000000013
#03112:00130013
#03117:0013
#0311b:0000000000130000
#03115:0000000000000013
#03412:1414240014000000
#0341a:1400000014142400
#03418:0014000000000000
#03414:0000000000140000
#03416:00240024
#0511b:13131300
#05118:0013001300130013
#05112:13
#05115:0000001313000000
#05812:23001313
#05816:2400240000140014
#0581b:00231313
#06212:24001313
#0621a:0000240000140014
#06217:00001313
#06216:24240000
#06418:00000013
#06415:0000000000130013
#06412:1313
#06417:00130000
#06517:00001212120000000000000000000000
#06512:2500001400003300
#06519:25000013
#0651b:0000000000000013
#0651a:0000002400000000
#0631b:0013130000130000
#06317:13000013
#06316:00130000
#06312:0000001300000000
#0661b:00001313
#06612:0000240000140014
#06616:24241313
#0661a:24
#07018:0000000000130000
#07015:00000013
#07012:2300130000000013
#07016:0013001300000000
#0701b:13131300
#07010:41
#07117:00130013
#07114:0000001300000000
#0711b:0013000013000000
#07119:0000000000130000
#07112:00130000
#07215:0000000000130000
#07218:00000013
#0721b:2300130000000013
#07212:13131300
#07217:0013001300000000
#07316:00130000
#07319:0000001300000000
#07312:0013000000000000
#0731b:00130000
#07317:0013
#07416:00132200
#07418:0012
#07414:0000000000130000
#07412:24000024
#0741a:00240024
#07419:0000000000230000
#0181b:1313000000000000
#01815:1313000000000000
#01812:0000240013130000
#01818:0000000013130000
#0181a:00000024
#01816:00240024
#01912:1323
#01917:1323
#01919:0013000000000000
#0191b:00130000
#01916:00130000
#01914:0000001300000000
#0191a:00000024
#00216:14141414
#00212:00240024
#0021a:2424
#02415:00130000
#02418:0012
#02414:0000000000130000
#02412:24000024
#0241a:00240024
#02416:0022
#02419:0000000000230000
#03718:2424000000000000
#03719:0000252525000000
#03714:0024000000000000
#03712:0000252525000000
#0531b:0022
#05313:22000022
#05315:0022000000000000
#05317:00222200
#05319:0000002200000000
#07716:0022000000002200
#07718:00220000
#0771a:0000002200000000
#0771c:0022
#0075a:0000001400000000
#00752:0000001400000000
#0035c:00001212
#00352:00160000
#00358:00161212
#05057:63000063
#05052:63636300
#05055:0023002300230000
#0505b:0013
#0055b:0000000000000043
#00652:0000003300000000
#0125b:6300630000000053
#01257:0023002300000000
#01952:0063
#0185a:00000044
#01852:00340000
#01856:00340044
#01758:0000006300000000
#01755:0000005300000000
#0285b:0000000000000043
#02857:54
#02852:00000000000000240000000000000000
#03052:0000000000230034
#03057:00530000
#0305b:0000002300006300
#03055:0063
#03552:0034
#03556:00003444
#0355a:00000044
#03658:54445444
#03654:34643464
#0365a:0024000000240000
#03652:0000002400000024
#04052:63336333
#04055:0023000000230000
#04058:0000002300000023
#0405b:43534353
#04156:63
#04152:00130000
#0415b:43
#04558:16
#04556:00160000
#04554:0016
#04552:00000016
#0475b:0000002300000023
#04752:0000000000230000
#04758:00530053
#04755:0053
#05456:44340000
#05452:00330000
#0545b:43
#05557:0000000000530000
#0555b:0000000000000043
#05556:0000000000000043
#05555:0000001300000000
#05558:0000001300000000
#05756:0000006300000000
#0575b:0000004300000000
#06152:0034340000000000
#0615a:0044440000000000
#00252:00340034
#0025a:4444
#01159:0045000000000000
#01152:00350000
#0165a:44000044
#01652:00340034
#0325b:63535300
#03258:0023002300230000
#03355:0023002300230000
#03352:53535300
#03856:53
#03857:0063
#0385b:5300001300000000
#03852:0000000053000013
#03956:53
#03957:0063
#0395b:5300001300000000
#03952:0000000053000013
#0465b:63
#04652:0053
#04656:5300001300000000
#04657:0000000053000013
#04957:63
#0495b:00130000
#04952:13
#0535b:0062
#05357:00000012
#05353:00000012
#05656:0063000000000000
#05652:0000003300000000
#05657:0000003300000000
#0695c:0042420000000000
#05252:5353
#0525b:00530063
#06852:0053
#0685b:00000053
#03754:34
#03752:0035
#03759:0045
#02655:0000000000000053
#01452:5300530000000063
#01456:0023002300000000
#02058:43
#0205b:00430000
#02055:33
#02052:0000330000000063
#02255:33
#02252:00330000
#02258:43
#0225b:0000430000000053
#02156:2353
#02152:0000000000230000
#02357:23
#02555:0000005300000000
#02558:0000006300000000
#0275c:0042
#03456:00340044
#03452:00340000
#0345a:00000044
#04358:00000053000000000000000000000000
#04352:53
#04255:00000053000000000000000000000000
#0425b:53
#04852:2323
#04856:00230023
#04854:0063006300630063
#0515b:53535300
#05158:0023002300230000
#05152:53
#05155:0053
#05958:0000001300000000
#05955:0000001300000000
#05852:33
#05856:34440000
#0585b:00430000
#06552:0000003400000000
#0655a:0000005400000000
#06252:34
#06256:34440000
#0625a:00440000
#06352:0000001300000033
#0635b:00530000
#06357:0000001300000000
#06452:0000003300000000
#0675b:0000001300000000
#06752:00630000
#06756:0000001300000000
#0665a:44
#06656:44340000
#06652:00340000
#07052:5300530000000063
#07056:0023002300000000
#0725b:6300630000000053
#07257:0023002300000000
#07452:34000034
#0745a:00440044
#07552:0000005300000000
#0755b:0000006300000000
#07652:0000000000000056
#0775c:0042
#02452:34000034
#0245a:00440044
#000370:12
#000320:0022
#000371:0013
#0013b1:23
#001360:14
#001320:0024
#001361:0014
#0023a1:24
#005371:0000000000130000
#005391:00000033
#0053b1:0000000000000023
#006361:0013000000000000
#006341:00330000
#006321:0000002300000000
#007361:0000000000140000
#0083a1:24
#009361:0000000000130000
#009341:00000033
#009321:0000000000000023
#0123b1:13332300
#012371:0053005300000000
#0123b1:0000000000000013
#013361:0023000000000000
#013371:0013
#0133b1:00000023
#014321:13332300
#014361:0053005300000000
#014321:0000000000000013
#015371:0023000000000000
#0153b1:0013
#015371:0000000000230000
#015320:0000000000130000
#015360:00000023
#0153b1:00000013
#015371:0000000000000023
#015320:0000000000000013
#016360:23
#017350:0000001300000000
#017320:0000000000240000
#017381:0000001300000000
#0173a1:0000000000240000
#019321:0013
#019361:00000024
#020321:0000000000000013
#021361:53
#021321:0023000000000000
#021361:00001323
#021321:0000000000530000
#0223b1:0000000000000013
#023371:53
#0233b1:0023000000000000
#023361:0013
#023321:0000000000230000
#023370:0000000000130000
#0233b0:00000023
#023361:00000013
#023321:0000000000000023
#023370:0000000000000013
#0243b0:23
#025380:0000001300000000
#0253a0:0000000000240000
#025351:0000001300000000
#025321:0000000000240000
#026351:0000000000000013
#027321:0053000023000000
#028371:1400000000000024
#028321:00000000340000543400000000000000
#029321:0013002300000000
#029361:00330000
#0293b1:0013
#029371:0000000000230000
#029361:00000013
#029321:0000000000000023
#030371:00130000
#0303b1:0000003300000000
#030381:0023
#030350:0013
#030320:0000000000330000
#030360:00000023
#0303b1:00000013
#030371:0000000000000023
#0313b1:0013002300000000
#031371:00330000
#031321:0013
#031361:0000000000230000
#031371:00000013
#0313b1:0000000000000023
#0323b1:13333323
#032381:0033003300330000
#033321:13333323
#033351:0033003300330000
#036381:14240000
#0363a1:0034000000000000
#036340:00142400
#036320:0000003400000000
#036381:00001424
#0363a1:0000000000340000
#036340:00000014
#036320:0000000000000034
#037340:24
#038360:1300002300000000
#038320:00330000
#0383b1:13
#038371:00230000
#038370:0000000013000023
#0383b0:00000033
#038321:0013
#038361:00000023
#039360:1300002300000000
#039320:00330000
#0393b1:13
#039371:00230000
#039370:0000000013000023
#0393b0:00000033
#039321:0013
#039361:00000023
#040320:13230000
#040350:0033000000000000
#0403b1:00132300
#040381:0000003300000000
#040320:00001323
#040350:0000000000330000
#0403b1:00000013
#040381:0000000000000033
#0413b1:23
#041360:13
#041320:00230000
#0423b0:13
#042380:00000023000000000000000000000000
#042351:00000013000000000000000000000000
#042321:0000002300000000
#043321:13
#043351:00000023000000000000000000000000
#043380:00000013000000000000000000000000
#0433b0:0000002300000000
#0443b0:13230000
#044370:0033000000000000
#044321:00132300
#044361:0000003300000000
#0443b0:00001323
#044370:0000000000330000
#044321:00000013
#044361:0000000000000033
#045321:23
#0463b1:1300002300000000
#046371:00330000
#046360:13
#046320:00230000
#046321:0000000013000023
#046361:00000033
#046370:0013
#0463b0:00000023
#047381:00132300
#0473b1:0000005300000000
#047350:00001323
#047320:0000000000530000
#047381:00000013
#0473b1:0000000000000053
#048381:23
#048320:1333
#048340:0033003300330033
#048360:00330033
#049320:23
#049371:13
#0493b1:00230000
#050371:13
#0503b1:00230000
#050320:13333323
#050350:0033003300330000
#050371:00000013
#0513b1:33333323
#051381:0033003300330000
#051320:13
#051350:00230000
#051350:0013
#051320:00000023
#052320:13
#052350:0023000000000000
#0523b0:00130000
#052380:0000002300000000
#052320:0013
#052350:0000000000230000
#0523b0:00000013
#052380:0000000000000023
#0533b0:0012
#053370:00000022
#0553b0:13330000
#055380:0033002300000000
#055370:0000000000130000
#0553b0:0000000000003323
#056360:0013000000000000
#056320:0000332300000000
#057360:0000001300000000
#057320:0000000000230000
#057371:0000000000130000
#0573b1:0000000000003323
#059321:13330000
#059351:0033002300000000
#059321:0000000000130000
#059351:00000023
#059380:00000013
#0593b0:0000000000000023
#059351:0000000000000013
#060321:23
#060321:0000000000130000
#060341:00000033
#060361:0000000000000023
#063321:13
#063361:0023000000000000
#0633b1:00130000
#063371:0000002300000000
#063361:0000000000130000
#063321:0000000000003323
#063370:0000000000000013
#0643b0:3323000000000000
#064361:0013000000000000
#064321:0000332300000000
#064370:0000001300000000
#0643b0:0000000033230000
#0653a0:0000001400000000
#065360:0000000000240000
#065321:0000000000133300
#065361:0000000000000023
#0673b1:13
#067371:0023000000000000
#067321:00130000
#067361:0000002300000000
#0673b1:0000000000130000
#067381:00000023
#067350:00000013
#067320:0000000000000023
#067381:0000000000000013
#0683b1:23
#068320:13230000
#068350:0033000000000000
#0683b1:00132300
#068381:0000003300000000
#068320:0013
#068350:0000000000230000
#0683b0:00000013
#068380:0000000000000023
#070320:13332300
#070360:0053005300000000
#070320:0000000000000013
#071370:0023000000000000
#071360:0013
#071320:00000023
#0723b0:13332300
#072370:0053005300000000
#0723b0:0000000000000013
#073360:0023000000000000
#073320:0013
#073360:0000000000230000
#0733b1:0000000000130000
#073381:00000023
#073350:00000013
#073320:0000000000000023
#073371:0000000000000013
#0743b1:23
#0753b1:0000001300000000
#075381:0000000000240000
#075320:0000001300000000
#075340:0000000000240000
#076320:0013000000000000
#076350:00230000
#0763b0:0000000000130000
#076380:00000023
#076320:0000000000000016
#077320:0022
#077320:00000014
#079330:0022
