This file was generated by Ched 2.7.0.0.
#TITLE ""
#ARTIST ""
#DESIGNER ""
#DIFFICULTY 0
#PLAYLEVEL
#SONGID ""
#WAVE ""
#WAVEOFFSET 0
#JACKET ""
#REQUEST "ticks_per_beat 480"
#00002: 4
#BPM01: 180
#00008: 01
#TIL00: ""
#HISPEED 00
#MEASUREHS 00
#0041a:14
#00414:00140000
#00418:0014
#00412:00000014
#0051a:14
#00514:00140000
#00518:0014
#00512:00000014
#0061a:14
#00614:00140000
#00618:0014
#00612:00000014
#00812:00140000
#00818:0014
#00814:00000014
#0091a:14
#00912:00140000
#00918:0014
#00914:00000014
#0101a:14
#01012:00140000
#01018:0014
#0121a:14
#01218:0014
#01210:41
#0131a:14
#01412:14
#01414:0014
#01512:14
#0161a:1414
#01614:00140014
#01718:1414
#01712:00140014
#01918:14
#01914:00140000
#0191a:0014
#02014:14
#02012:0014
#02114:14
#02218:14
#0221a:0014
#02210:41
#02318:14
#02412:1414
#02418:00140014
#02514:1414
#0251a:00140014
#02714:1414
#02718:00140000
#0281a:14
#0281f:11
#02818:0034
#02914:0014
#02918:00000014
#03012:14
#03014:0034
#03118:0014
#03114:00000014
#0321a:14140000
#03214:00001414
#03318:14140000
#03312:00001414
#0341a:14
#03612:14
#03818:0014
#0381a:24
#0381f:21
#0391a:14
#03918:0014
#03910:41
#04014:00140000
#04018:0014
#04012:00000014
#0411a:14
#04212:14
#04218:00000014
#04312:14
#04318:00000014
#04412:14
#04418:00140000
#04414:0014
#0441a:00000014
#0451a:0014
#04516:00000014
#04512:14
#04614:0014
#04612:24
#04712:14
#04714:0014
#04818:00140000
#04814:0014
#0481a:00000014
#04912:14
#0501a:14
#05014:00000014
#0511a:14
#05114:00000014
#0521a:14
#05214:00140000
#05218:0014
#05212:00000014
#05210:41
#05318:14
#0531a:0014
#05518:14
#05514:00140000
#0551a:0014
#05512:00000014
#0571a:0000001400000000
#05914:14
#05918:00140000
#05912:0014
#0591a:00000014
#06312:14
#06318:00140000
#06314:0014
#0631a:00000014
#06514:0000001400000000
#0671a:14
#06714:00140000
#06718:0014
#06712:00000014
#0701a:14
#07014:00140000
#07018:0014
#07012:00000014
#07010:41
#0711a:14
#07118:00343400
#07212:14
#07218:00140000
#07214:0014
#0721a:00000014
#07312:14
#07314:00343400
#0741a:14140000
#07414:00001414
#07612:14
#07618:00140000
#07614:0014
#00214:00240024
#00218:0024
#00318:24
#00314:00240000
#05418:24
#05414:00240000
#0541a:0024
#05412:00000024
#05814:24
#05818:00240000
#05812:0024
#0581a:00000024
#06114:0024000000000000
#06118:00240000
#06212:24
#06218:00240000
#06214:0024
#0621a:00000024
#0661a:24
#06614:00240000
#06618:0024
#06612:00000024
#06918:0024000000000000
#06914:00240000
#00719:0034000000000000
#0071a:00340000
#0751a:0034340000000000
#06010:41
#00358:14
#00354:00140000
#0125a:54
#01258:0054
#0135a:54
#01452:64
#01454:0064
#01552:64
#02054:54
#02052:0054
#02154:54
#02258:64
#0225a:0064
#02358:64
#0285a:54
#02858:0000000000000014
#03052:64
#03054:0000000000000014
#0345a:54
#03652:54
#0385a:54
#03858:0054
#0395a:54
#03958:0054
#0415a:54
#04252:54
#04352:54
#04654:0064
#04652:64
#04752:64
#04754:0064
#04952:64
#0505a:64
#0515a:64
#0535a:0054
#05358:54
#05458:14
#05454:00140000
#0575a:0000005400000000
#05854:14
#05858:00140000
#06252:14
#06258:00140000
#06554:0000005400000000
#0665a:14
#06654:00140000
#0715a:54
#07352:64
#0195a:0014
#0003a0:14
#000380:0034
#0013a0:34
#001380:0034
#0023a0:24
#007380:14
#007390:0034000000000000
#0073a0:0000343400000000
#0083a0:24
#010340:0000000000001434
#011340:0034240000000000
#0123a0:14
#012380:0034
#0133a0:34
#013380:0024
#014320:14
#014340:0034
#015320:34
#015340:0024
#0183a0:14240000
#018340:00001424
#020340:14
#020320:0034
#021340:34
#021320:0024
#022380:14
#0223a0:0034
#023380:34
#0233a0:0024
#026320:14240000
#026380:00001424
#0283a0:14
#028380:0000000034000024
#030320:14
#030340:0000000034000024
#0343a0:14
#035380:24
#035320:0014
#036320:34
#037340:24
#0383a0:14
#038380:0034
#0393a0:34
#039380:0034
#0403a0:24
#0413a0:14
#041380:0024
#042320:14
#042340:0024
#043320:14
#043340:0024
#046320:14
#046340:0034
#047320:34
#047340:0034
#048320:24
#049320:14
#049340:0024
#0503a0:14
#050380:0024
#0513a0:14
#051380:0024
#053380:14
#0533a0:0034
#054380:24
#0563a0:14
#056380:00240000
#056320:0014
#056340:00000024
#0573a0:1400003400000000
#057380:00000024
#060320:14
#060340:00240000
#0603a0:0014
#060380:0000000000003424
#064340:14
#064320:00240000
#064380:0014
#0643a0:00000024
#065340:1400003400000000
#065320:00000024
#068380:14
#0683a0:00240000
#068340:0014
#068320:0000000000003424
#0713a0:14
#071380:00343424
#073320:14
#073340:00343424
#075380:14
#0753a0:0034343400002400
#0763a0:0000000000001434
#0773a0:0024
#077320:00000014
#079320:0024
