This file was generated by Ched 2.7.0.0.
#TITLE ""
#ARTIST ""
#DESIGNER ""
#DIFFICULTY 0
#PLAYLEVEL
#SONGID ""
#WAVE ""
#WAVEOFFSET 0
#JACKET ""
#REQUEST "ticks_per_beat 480"
#00002: 4
#BPM01: 85
#00008: 01
#TIL00: ""
#HISPEED 00
#MEASUREHS 00
#00019:14
#00219:14
#00113:14
#00313:14
#04614:14
#00614:14
#00618:0014
#00714:14
#00718:0014
#01018:14
#01014:0014
#01114:0014
#01118:14
#01418:0016
#01412:26
#01410:41
#01512:16
#01518:0016
#01912:16
#01918:0016
#01910:00000041
#0241a:14
#02514:14
#02510:41
#02618:14
#02712:14
#01612:16
#01618:0016
#01818:0016
#04012:0016
#04118:16
#04112:0016
#0471a:14
#04812:14
#04918:14
#03718:0016
#03712:16
#03618:0016
#03612:26
#0361f:21
#03610:0041
#03518:0016
#03512:16
#03312:0016
#03318:16
#03212:0016
#0321f:11
#03218:26
#03118:0026
#03112:00000026
#03110:41
#00810:41
#0043a0:1434
#0053a0:3424
#008320:1434
#009320:3424
#012380:14
#013380:0024
#017320:16363636
#018320:26
#020320:1626
#021380:1626
#022320:16363636
#023320:3626
#0283a0:14
#0293a0:24
#030320:14
#031320:24
#034380:1626
#038320:1626
#039380:16363636
#040380:26
#042380:1626
#043320:1626
#044380:16363636
#045380:3626
#050340:14
#052340:24
