This file was generated by Ched 2.7.0.0.
#TITLE ""
#ARTIST ""
#DESIGNER ""
#DIFFICULTY 0
#PLAYLEVEL
#SONGID ""
#WAVE ""
#WAVEOFFSET 0
#JACKET ""
#REQUEST "ticks_per_beat 480"
#00002: 4
#BPM01: 85
#00008: 01
#TIL00: ""
#HISPEED 00
#MEASUREHS 00
#0321f:11
#0321b:00230013
#03212:0000001300000013
#03216:24
#03215:00230000
#03618:00000000000000000000000000130000
#03617:0013000013000000
#03616:00130000
#03614:0000001300000000
#03612:2300000013130000
#0361b:2300000000130000
#03615:0000000000001313
#03619:0000001300000000
#0361f:21
#03610:0041
#00018:13
#0001b:00130000
#00015:0013
#00012:00000013
#00118:13130000
#0011b:0013001300000000
#00115:00001313
#00112:0000000000130013
#00218:13
#0021b:00130000
#00215:0013
#00212:00000013
#0031b:00130000
#00315:0013
#00312:00000013
#00318:1300000000000013
#0041b:1300130000000013
#00416:00130000
#00412:13
#00418:00001313
#00415:0000000000130013
#00512:0013001300000000
#00515:0000130000130000
#00518:0000001300001300
#00618:00130000000013001300000013000000
#00615:13000000000000130000130000001300
#0061b:0000000000130013
#00612:00000013
#00715:00130000000013000000130000001300
#00712:0013
#00718:13001313
#0071b:0000000000000013
#00812:1300130000000013
#00817:00130000
#0081b:13
#00815:00001313
#00818:0000000000130013
#00810:41
#0091b:0013001300000000
#00918:0000130000130000
#00915:0000001300001300
#01015:00130000000013001300000013000000
#01012:0000000000130013
#01018:13000000000000130000130000001300
#0101b:00000013
#01118:00130000000013000000130000001300
#01115:13002313
#01112:0000000000000013
#0111b:0023
#01318:00000013
#01315:0000000000000013
#01417:00130000
#01419:0000001300000000
#0141b:2300000013130000
#01412:1300000000130000
#01418:0000000000001313
#01415:00000000000000000000000000130000
#01416:0013000013000000
#01414:0000001300000000
#01410:41
#01512:0013000000001313
#01518:00130000
#01517:00000000000000000000000000130000
#01515:0000130000130000
#01618:0013001300000000
#01615:00000013000000000000000000000000
#0161b:0000130000000013
#01612:0000001300000013
#02018:1300001300000000
#02015:00001300000000130000000000000000
#02012:1300000000130000
#0201b:0013000000000013
#02118:13000000000000000013001300000000
#02112:00131313
#02115:0000000000000013
#0211b:0000130000000013
#02218:13
#02212:13
#02216:00130013
#0221b:00130000
#02217:0013
#02312:13
#0231b:13
#02316:0000000000220022
#02318:00000022
#02814:00000000000013000000000000330000
#02815:13
#02816:0013
#02812:0000000000331300
#0281a:24242424
#02718:0000000013000013
#02715:00000000000000000013001300000000
#02712:00000013
#0271b:00000013
#03015:00131313
#03012:0013001300130013
#0301a:24242424
#03014:00000033000000000000000000000000
#03118:0013
#03112:0000000000141414
#0311a:0000000000141414
#03110:41
#0291b:0013001300331300
#02918:00000000133300331300000000000000
#02912:24242424
#02919:00000000000000000000000000330000
#03312:0013130000002323
#0331b:0013130000002300
#03318:00000000000000133300000000000000
#03315:00000000000000133300000000000000
#03317:0000000000000023
#03519:0000000000130000
#0351b:13131323
#03512:13130000
#03518:0000001300000023
#03515:0013000000000013
#04215:1300001300000000
#04218:00001300000000130000000000000000
#0421b:1300000000130000
#04212:0013000000000013
#04315:13000000000000000013001300000000
#0431b:00131313
#04312:0000130000000023
#04318:0000000000000023
#04417:00130023
#04416:0013
#04415:23
#0441b:23
#04412:00230000
#0451b:13
#04512:23
#04518:0000000000220022
#04516:00000022
#04613:00120000
#04616:0000001200001200
#04619:2212
#04615:22
#0471a:0000001200120012
#04716:00000000000000120000000000000000
#04718:00001212
#04714:0000000000120012
#04712:00000012
#0481c:1200001200000000
#04816:1200001200000000
#04814:00121200
#0481a:00121200
#04812:00000012
#04818:00000012
#0491c:12
#0491a:0000001200000013
#04916:00000000000000120000000000000000
#04917:00000000000000000000000000000013
#04915:0000000000000013
#04912:00000000000000000000000000000013
#01718:13131313
#0171b:0013001300130013
#01715:13130013
#01712:0013001300130013
#01815:1300000000130013
#0181b:0000000000130013
#01818:00000013
#01816:0000001400000000
#01812:00242413
#0181a:00140000
#0371b:0013000000001313
#03715:00130000
#03716:00000000000000000000000000130000
#03718:0000130000130000
#03815:0013001300000000
#03818:00000013000000000000000000000000
#03812:0000130000000013
#0381b:0000001300000013
#03912:0013001300130013
#03915:13132313
#0391b:0013001300130013
#03918:23130013
#01918:0013230000130023
#01912:0013230000130023
#0191b:00001323
#01915:00001323
#01910:00000041
#03419:1313
#03414:00130013
#03415:0013001300130000
#03416:2313
#03417:00130013
#03418:0013001300130000
#04112:00001323
#0411b:0013230000130023
#04118:00001323
#04115:0013230000130023
#04018:2300000000130013
#04012:0000140000130013
#04015:00000013
#04016:0000001400000000
#0401b:00000013
#0401a:00242400
#02614:0000000000120012
#02613:00000012
#0261a:0012001200000000
#0261b:00120000
#02514:0000000000120012
#02513:00000012
#0251a:0012001200000000
#0251b:00120000
#02510:41
#02414:0000000000120012
#02413:00000012
#0241a:0012001200000000
#0241b:00120000
#02419:22
#02415:22
#02155:13
#02158:53
#0215b:00230000
#04358:13
#04355:63
#04352:00230000
#01858:13000013
#01855:1300000000000013
#01856:0000002400000000
#0185a:00640000
#04055:13000013
#04058:1300000000000013
#04056:0000002400000000
#04052:00540000
#0145b:13
#01452:53
#01456:0023000000000000
#01458:0000000000000053
#03256:14
#03255:00530000
#0325b:00000013
#03252:0000002300000013
#03456:2323
#03459:2323
#03454:00230023
#03455:0063006300630000
#03457:00230023
#03458:0063006300630000
#0445b:53
#04452:00530000
#04457:00530053
#04456:0053
#04552:53
#0455b:53
#0365b:63
#03652:13
#03657:0023000000000000
#03655:0000000000000053
#03955:00006363
#03958:53530000
#03952:0000000000230023
#0395b:0023002300000000
#03357:0000000000000063
#03352:00630000
#03358:00000000000000530000000000000000
#0335b:00530000
#03355:00000000000000630000000000000000
#01952:00630000
#01958:00630000
#0415b:00530000
#04155:00530000
#0045b:1300000000000053
#00456:00630000
#00452:63
#00558:0000005300000000
#00852:1300000000000063
#00857:00530000
#0085b:53
#00955:0000006300000000
#01552:0000000000000013
#01555:00530000
#02252:63
#02256:00630063
#0225b:00630000
#02257:0063
#02352:63
#0235b:63
#02855:53
#02856:0063
#02852:00000063
#03055:00536353
#03052:0053005300230053
#0295b:0053002300005300
#02958:00535300
#0355b:13
#01758:00005353
#0175b:0000000000230023
#01755:63630000
#01752:0023002300000000
#0375b:0000000000000013
#03758:00630000
#02058:53
#0205b:0023000000000000
#02052:53
#02055:0023000000000000
#04255:63
#04252:0023000000000000
#0425b:63
#04258:0023000000000000
#000350:13230000
#000380:00001323
#001350:13230000
#001380:00001323
#002350:13
#002320:00230000
#0023b0:0013
#002380:00000023
#003320:13
#003350:00230000
#003380:0013
#0033b0:00000023
#004320:1323
#004360:00330000
#0043b0:0000000000000013
#005380:0023000000000000
#005380:0000001300000000
#0053b0:0000000000230000
#0053b0:0000000000000013
#0063b0:23
#006350:00000013000000000000000000000000
#006320:0000002300000000
#0073b0:00000013000000000000000000000000
#007380:0000002300000000
#0083b0:1323
#008370:00330000
#008320:0000000000000013
#009350:0023000000000000
#009350:0000001300000000
#009320:0000000000230000
#009320:0000000000000013
#010320:23
#010380:00000013000000000000000000000000
#0103b0:0000002300000000
#011320:00000013000000000000000000000000
#011350:0000002300000000
#012350:130000000000000000000000000000000000000000000000000000000000000000000000000000000000000000000053000000000000000000000000540000000000000000000000540000000000000000000000540000000000000000000000540000000000000000000000540000000000000000000000540000000000000000000000540000000000000000000000540000000000000000000000550000000000000000000000550000000000000000000000550000000000000000000000
#012340:0000000000000000000000000000000000000000000000000000000000000000540000000000000000540000000000000054000000000000005400000000000000540000000000000054000000000000005400000000000000540000000000000000000000000000000000000000000000000000000000000000000000000000
#012330:0000000000000000000000000000000000000000000000000000000000000000000000000000000000000000000000000000000000000000000000000000000000000000000000000000000000000000000000000000000000000000000000000055000000000000005500000000000000550000000000000055000000000000
#013350:55555556565656562600000000000000
#013330:0055000000000000005500000000000000000000000000000000000000000000000000000000000000000000000000000000000000000000000000000000000000000000000000000000000000000000000000000000000000000000000000000000000000000000000000000000000000000000000000000000000000000000
#013320:0000000000000000000000000000000000560000000000000056000000000000005600000000000000560000000000000056000000000000005600000000000000000000000000000000000000000000000000000000000000000000000000000000000000000000000000000000000000000000000000000000000000000000
#014320:13230000
#014360:0053000000000000
#014380:0000000000000013
#0153b0:0023000000000000
#015350:00130000
#015320:0023
#0153b1:0013
#015391:0000000000330000
#015371:00000023
#016351:00001323
#016321:0000000000330000
#0163b0:00001323
#016380:0000000000330000
#017350:13332300
#017320:0033003300000000
#017381:00001333
#0173b1:0000000000330033
#018381:23
#0183a1:00142400
#018361:0000005400000000
#019321:00130000
#019351:00000000000000230000000000000000
#019380:00130000
#0193b0:00000000000000230000000000000000
#019380:0000000000000013
#020380:33230000
#0203b0:0053000000000000
#019321:0000000000000013
#020321:33230000
#020351:0053000000000000
#020381:00001323
#0203b1:0000000000330000
#020350:00000013
#020320:0000000000000033
#021350:23
#021381:1323
#0213b1:00530000
#022321:1323
#022361:00330000
#0223b0:00130023
#022370:0033
#022361:00000013
#023321:33
#023361:0022
#0233b0:13
#023380:0022
#024350:1222
#024391:0012
#025391:22
#025350:1222
#025391:0012
#026391:22
#026350:1222
#026370:00520000
#026391:0012
#026371:00000052
#027391:22
#027350:1200003200000000
#027340:00000000000000320000000000000000
#027330:0022
#028350:13
#028320:00230000
#028360:0000000013000023
#028320:0000000000333300
#028340:00000000000000000000000000330000
#0293b0:0013005300333300
#029380:00000000333300333300000000002300
#029390:00000000000000000000000000330000
#030320:0013003300530033
#030340:00000033000000000000000000000000
#030350:00333333
#031350:3323
#032350:00132300
#032320:0000005300000000
#032381:0000000013230000
#032350:0000000000132300
#033320:0000130000230000
#033350:00000000000000333300000000000000
#0333b1:0000130000230000
#033381:00000000000000333300000000000000
#033371:0000000000000013
#034391:3333
#034381:0053005300530023
#034371:00330033
#034360:1333
#034350:0053005300530023
#034340:00330033
#035320:00001323
#035340:00000000000000000033003300000000
#035360:0000000000330000
#0363b0:13230000
#036370:0053000000000000
#036350:0000000000000013
#037320:0023000000000000
#037380:00130000
#0373b0:0023
#037321:0013
#037341:0000000000330000
#037361:00000023
#038381:00001323
#0383b1:0000000000330000
#038320:00001323
#038350:0000000000330000
#039380:13332300
#0393b0:0033003300000000
#039351:00001333
#039321:0000000000330033
#040351:23
#040321:00142400
#040361:0000005400000000
#0413b1:00130000
#041381:00000000000000230000000000000000
#041350:00130000
#041320:00000000000000230000000000000000
#041350:0000000000000013
#042350:33230000
#042320:0053000000000000
#0413b1:0000000000000013
#0423b1:33230000
#042381:0053000000000000
#042351:00001323
#042321:0000000000330000
#042380:00000013
#0423b0:0000000000000033
#043380:23
#043351:1323
#043321:00530000
#0443b1:1323
#044371:00330000
#044320:00130023
#044360:0033
#044371:00000013
#0453b1:33
#045381:0022
#045320:13
#045360:0022
#046390:1200002200000000
#047340:1200002200000000
#049360:1200002200000000
#049380:00001222
#0503a0:13
#0523c0:22
#050351:13
#052371:22
