This file was generated by Ched 2.7.0.0.
#TITLE ""
#ARTIST ""
#DESIGNER ""
#DIFFICULTY 0
#PLAYLEVEL
#SONGID ""
#WAVE ""
#WAVEOFFSET 0
#JACKET ""
#REQUEST "ticks_per_beat 480"
#00002: 4
#BPM01: 85
#00008: 01
#TIL00: ""
#HISPEED 00
#MEASUREHS 00
#00012:13130000
#00018:13130000
#00015:00001313
#0001b:00001313
#00118:1313
#00112:0013000000130000
#0011b:00130013
#00115:0000001300000013
#00218:13
#0021b:00130000
#00219:0013
#00212:00000013
#00216:00130000
#00217:00000013
#00214:0013
#00314:00130000
#0031b:0013
#00315:00000016
#00312:13
#00317:13
#00319:00130000
#00316:0013
#00415:00130013
#00412:1300000000000013
#00418:0000000000130000
#0041b:0000000000000013
#00512:0013000000000000
#00515:0000130000130000
#00518:0000001300001300
#0051b:0000000000000013
#00612:00330033000000000000000000001300
#00615:13000013
#00618:0000000000130000
#0061b:0000000013000013
#01315:0000000000000013
#01318:00000013
#01412:00130000
#01415:00000000000013000000000013333300
#01418:2613
#0141b:0000000000130000
#01410:41
#01518:0000000000000013
#01512:0000000000130000
#0151b:0013130000001300
#01515:00000000000000000000000000130000
#01612:0013000000130000
#01618:00000013000013000000130000001300
#01615:00131313
#0161b:00001313
#0201b:0000001313000013
#02015:13000000000000130000000013000000
#02018:0000000000130000
#02012:0000000000000013
#0211b:13
#02115:0000000000000013
#02117:0000001300000000
#02218:0013
#0221b:00000013
#02215:13
#02212:00130000
#02818:00000000000013000000000000130000
#02815:13001313
#0281b:0000000000130000
#02812:0000000000000013
#02718:0000000000000013
#0271b:00000013
#03112:0000000000140000
#03116:00000014
#0311a:0000000000000014
#03110:41
#03312:0013130000002400
#03318:0013
#03315:0000000000130000
#0331a:0000000000002424
#03515:1300001300130000
#0351b:00130023
#03518:0013000013000023
#03512:00130000
#04616:00120012
#0461b:0000001200000000
#04619:2212
#04715:0000000000120000
#04717:00000012
#04719:0000000000000012
#04713:0000001212000000
#04718:00000000000000120000000000000000
#0481b:1200001200000000
#04816:00120012
#04819:0012
#01715:1333000000000000
#01712:00130000
#01718:0000000013330000
#0171b:00000013
#01815:1300000000130000
#0181b:0000000000000013
#0181a:00140000
#01818:00000013
#01812:0000000000000013
#01915:0013000013000023
#01918:0000230000130000
#0191b:00000023
#01912:00000023
#01910:00000041
#03418:0014000000140000
#0341a:0000001400000000
#03419:14141414
#04918:00000000000000120000000000001300
#04915:00000000000000000000000000000013
#04914:0000001200000000
#0071b:1300000000000013
#00718:00330033000000000000000013000000
#00712:0000000013000013
#00715:0000000000130000
#00818:00130013
#0081b:1300000000000013
#00815:0000000000130000
#00812:0000000000000013
#00810:41
#0091b:0013000000000000
#00918:0000130000130000
#00915:0000001300001300
#00912:0000000000000013
#0101b:00330033000000000000000000001300
#01018:13000013
#01015:0000000000130000
#01012:0000000013000013
#01112:1300000000000013
#01115:00330033000000000000000013000000
#01118:0000000000130000
#0111b:0000000023000013
#02315:13
#02312:00130000
#02318:0000000000220000
#02317:00000022
#02316:0000000000000022
#02912:0000000000130000
#02918:00130013
#02915:00001300000000000000000000130000
#0291b:00000000000000330000000000001300
#03018:0013
#03015:0013000000130000
#0301b:00000013
#03012:0000130000000013
#03013:00000033000000000000000000000000
#03218:0000000000130013
#03215:00000013
#0321f:11
#03212:24230000
#0321b:00230000
#04312:13
#04316:0000001300000000
#04318:0000000000000023
#04412:00000013
#0441b:00130000
#04418:23
#04415:0023
#0451b:00130000
#04516:0000000000220000
#04517:00000022
#04518:2300000000000022
#01215:13
#0361b:00130000
#03618:0000001300001333
#03615:0013
#03612:2600000000130000
#0361f:21
#03610:0041
#03712:0013130000001300
#03715:0000000000000013
#0371b:0000000000130000
#03718:00000000000000000000000000130000
#04212:0000001313000013
#04218:13000000000000130000000013000000
#04215:0000000000130000
#0421b:0000000000000013
#04018:2300000000130000
#0401b:0000000000000013
#04012:0000140000000013
#04015:00000013
#04118:0013000013000023
#04115:0000230000130000
#04112:00000023
#0411b:00000023
#0381b:0013000000130000
#03815:00000013000013000000130000001300
#03818:00131313
#03812:00001313
#03912:00000013
#0391b:00130000
#03915:0000000023330000
#03918:2333000000000000
#02415:22
#02510:41
#00452:63
#00455:00630000
#01458:16
#01455:00000063
#01558:0000000000000013
#0155b:00530000
#0215b:53
#02157:0000002300000000
#02258:0063
#0225b:00000063
#02255:53
#02252:00530000
#03252:14630000
#0325b:00530000
#03258:0000000000000013
#01755:63
#01752:00630000
#01758:0053
#0175b:00000053
#02055:63
#03458:0024000000240000
#0345a:0000002400000000
#03459:54545454
#03352:00630000
#0335a:0000000000000024
#0185a:00640000
#01855:13
#01958:00630000
#00655:53
#0075b:53
#00858:00530000
#0085b:53
#01058:63
#01152:63
#02355:63
#02352:00230000
#02958:00530000
#03052:00630000
#03055:0063000000000000
#04352:63
#04356:0000002300000000
#04452:00000053
#0445b:00630000
#04455:0053
#04458:63
#0455b:00230000
#04558:53
#03955:0063
#03952:00000063
#0395b:00530000
#03958:53
#01255:23
#02855:53
#03658:00000053
#03652:16
#03752:00630000
#03755:0000000000000013
#04258:53
#04052:00540000
#04058:13
#04155:00530000
#004320:1323
#004350:00330000
#006350:13
#006320:00330033000023000000000000000000
#0073b0:13
#007380:00330033000023000000000000000000
#0083b0:1323
#008380:00330000
#010380:13
#0103b0:00330033000023000000000000000000
#011320:13
#011350:00330033000023000000000000000000
#012350:13
#013320:0029
#014350:00000000000000000000000013333300
#015320:23
#0153b0:00130000
#015380:0023
#017350:1333002300000000
#017320:00330000
#017380:0000000013330023
#0173b0:00000033
#0183a0:00140000
#018360:0024
#019380:00130000
#0193b0:00000000000000230000000000000000
#019350:0000000000000013
#020350:33
#020320:00230000
#0213b0:13000023
#021370:0000005300000000
#022350:1323
#022320:00330000
#022381:0013
#0223b1:00000033
#023381:23
#023350:1323
#023320:00530000
#024350:1232322200000000
#024390:0000000012323222
#025340:1232322200000000
#0253a0:0000000012323222
#026330:1232322200000000
#0263b0:0000000012323222
#027350:1222
#028350:13
#028320:00230000
#029380:00130000
#0293b0:00000000000000332300000000000000
#030350:0013002300000000
#030330:00000033000000000000000000000000
#030320:00330000
#031380:1323
#0323b0:00130000
#032380:0023
#032321:00130000
#032351:0023
#033321:00130000
#033351:00000000000000230000000000000000
#0333a1:0000000000000014
#034391:34343434
#034381:0054000000540000
#0343a1:0000005400000024
#036381:0000000000001333
#0373b1:23
#037321:00130000
#037351:0023
#039381:1333002300000000
#0393b1:00330000
#039351:0000000013330023
#039321:00000033
#040321:00140000
#040361:0024
#041351:00130000
#041321:00000000000000230000000000000000
#041381:0000000000000013
#042381:33
#0423b1:00230000
#043321:13000023
#043361:0000005300000000
#044381:1323
#0443b1:00330000
#044350:0013
#044320:00000033
#045350:23
#045381:1323
#0453b1:00530000
#0473a1:12220000
#0493a1:12220000
#049341:00001222
#050381:13
#0523c1:22
