This file was generated by Ched 2.7.0.0.
#TITLE ""
#ARTIST ""
#DESIGNER ""
#DIFFICULTY 0
#PLAYLEVEL
#SONGID ""
#WAVE ""
#WAVEOFFSET 0
#JACKET ""
#REQUEST "ticks_per_beat 480"
#00002: 4
#BPM01: 85
#00008: 01
#TIL00: ""
#HISPEED 00
#MEASUREHS 00
#00018:12
#0001c:00120000
#00016:0012
#00012:00000012
#00118:12120000
#0011c:0012001200000000
#00116:00001212
#00112:0000000000120012
#00218:1212
#0021c:0000120000120000
#00216:0012000012000000
#00212:12000012
#00714:0000000000150000
#00713:00000013
#0071a:0000000000120014
#00712:0000000000000017
#00715:0016
#00717:00000016
#00716:13150013000000000000000000000000
#0071b:13000013000000000000000000000000
#01113:0000000000160000
#01117:13000013000000002700000015000000
#01115:00150000000000000000000000001600
#0111a:0000000000130000
#01114:00000012
#01112:13000013000000002400000000000000
#01318:00000012
#01316:0000000000000012
#01612:0013001300000000
#01614:00000013000000000000000000000000
#0161b:13130000
#0161b:13
#01617:0013001300000000
#01616:0000130000000013
#01619:00000013000000000000000000000000
#0201b:1300001300000013
#02017:1300001300130000
#02016:0013000000000000
#02012:000013000000001c1300000000000000
#02117:13000000000000000013001300000000
#02116:00130000
#02112:00001313
#02115:0000000000120013
#0211b:00130013
#02118:0000000000000013
#02114:0013001300000000
#02317:1200000000222222
#02313:0012000000000000
#02315:00120000
#0231a:24
#02812:1300001300130013
#02817:00001300000013001300130000130000
#0281b:23232323
#02716:0000000000000014
#02719:00000000000000000012001200000000
#02712:00000013
#0271b:00000013
#02717:0012
#02715:00000000000000000012001200000000
#03118:0000000012131415
#03115:0000000000130000
#03114:00000014
#03113:0000000000000015
#03110:41
#02916:00001300130000131300130000130000
#0291b:0013000000130013
#02912:23232323
#03517:0000000000130000
#0351b:13131300
#03512:13130000
#03515:00130013000013000000000000002600
#03518:00001300001300130000000026000000
#04616:22120012
#04617:0000001200000000
#04618:2212
#04612:0012
#0461c:00000012
#04718:12000000000000120000120000000000
#0471a:00001212
#04712:1200000000120000
#04714:00001212
#04716:0012001200000012
#0471c:0012001200000012
#04818:1200001200001200
#04812:1200001200001200
#0481c:00121200
#04816:00121200
#04918:0012001200000000
#04916:12000000000000120000000000001313
#0491a:00000000000000001200000000000013
#04912:0012001200000013
#04914:0012
#04917:0000000000120000
#0491c:12000012
#00318:1200000000120013
#0031c:00121200
#00316:12000000000000000000001212000000
#00312:00001200000000001212000000000000
#00313:0000000000000013
#0181b:0000000000130013
#01815:1600000000161616
#01812:0000261626001300
#01818:00160000
#01916:0013230013130023
#01912:1300000013000000000000130000000000000000130000002600000023000000
#0191b:00231300
#01917:0000000000000000000000130000000000000000000000000000000000000000
#01918:00000026
#01910:00000041
#0241c:0012000000000000
#0241a:00120000
#02418:2200001212000000
#02412:0000000000120000
#02414:00000012
#02416:2200000000000012
#02518:0012001200000000
#0251c:00120000
#02516:0000000000120012
#02512:00000012
#02510:41
#0261c:0012001200000000
#02618:00120000
#02612:0000000000120012
#02616:00000012
#03312:0000000013000000000000130000000033000000000000002500000000000000
#03315:00000000000000000000000000000000130000000000000000000000001300000000000000000000000000000000000000000000000000002300000000000000
#0331b:0000000013000000000000130000000033000000000000000000000000000000
#03318:00000000000000000000000000000000130000000000000000000000001300000000000000000000000000000000000000000000000000002300000000000000
#03319:00000025
#03317:00000000000000330000000000000000
#0341b:1313
#03415:0013131300130016
#03418:0013131300130000
#03412:2313
#03216:000000000000000000000000000000000000000000000000000000000000000000000000000000000000000000000000000000000000000000000000000000000000000000000014140000000000000000000000000000000000000000000000000000000000000000000000000000000000000000000000000000000000000000000000000000000000000000000000140000000000000000000000000000000000000000000000000000000000000000000000000000000000000000000000
#0321a:0000240000120000
#03214:0000000000120014
#03218:0000000000000014
#0321f:11
#03212:2c240000
#02212:1300001314000014
#0221b:1313130000000000
#0221a:0000000000141400
#02216:001300000000001400001400
#02214:001300001400
#02217:001300
#02219:000000000013000000000000
#02218:000000000000000000000014
#0041b:1300130013000013
#00416:1300130000000012
#00412:0013001300120000
#00419:00000013
#00417:0000000000130000
#00414:00000012
#00517:1300001300001313
#0051b:0000130013000013
#00512:1300001300000000
#00516:0013
#00612:1300000013000013
#00617:1313
#00619:0000000000130000
#00614:0000000000130000
#0061b:00000013000000000000000013000000
#00615:00150000000000120000000000000000
#00616:00000013000000000000000013001300
#03012:0013000000130013
#03016:00001313130013001300130013001300
#03014:00000000000000000013001300130013
#0301b:23232323
#0451b:0012000000000000
#04519:00120000
#04517:2200000000222222
#00812:1300130013000013
#00817:13130000
#0081b:0013001300000000
#0081c:0000000000120000
#00814:00000013
#00818:0000000000000012
#00816:0000000000130000
#0081a:00000012
#00810:41
#00916:1300001300001313
#00912:0000130013000013
#0091b:1300001300000000
#00917:0013
#0101b:1300000013000013
#01016:13150000000000001300000000000000
#01014:0000000000130000
#01019:0000000000130000
#01012:00000013000000000000000013000000
#01017:00000013000000000000000013001300
#01217:0000000000120000000000000000000000000000000000000000000000000000
#01216:14
#03616:0013131313000013
#0361b:2300000013130013
#03612:2613001300131300
#03619:00000000000000000000000000130000
#03617:00000013
#0361f:21
#03610:0041
#0371b:0013001300130013
#03717:00000000130000000000000000130000
#03712:0000130013001313
#03718:13
#03716:0000001300000000
#0381b:0013001300000000
#03819:00000013000000000000000000000000
#03812:13130000
#03816:0013001300000000
#03817:0000130000000013
#03814:00000013000000000000000000000000
#03912:2313000000230000
#0391b:0000001323002300
#03916:23001300000000000013000000000000
#03917:00000000230013000000000000132300
#0431b:00001313
#04316:13000000000000000013001300000000
#04319:0013001300120000
#04312:00130013
#04317:00130000
#04315:0000000000000023
#04318:0000000000000023
#04012:0000160000130013
#04018:0000261626000000
#0401b:00000013
#04015:2600000000161616
#04117:0013230013130023
#0411b:1300000013000000000000130000000000000000130000000000000023000000
#04112:00231326
#04116:0000000000000000000000130000000000000000000000000000000000000000
#04118:00000026
#04212:130000000000131c0000000000001300
#04216:1300001300130000
#04217:0013000000000000
#0421b:0013000013000000
#04412:2313230000142400
#0441b:2300001300000000
#0441a:0000000024000014
#04417:001300000000000000000000
#04419:001300000000
#04416:000000001300001400001400
#04414:000000000013000000000014
#04418:000014
#01717:00001300000000000013000000000000
#01716:00000000000013000000000000131300
#01712:0000001313001300
#0171b:1313000000130000
#01417:0013131313000013
#01412:1300000013130013
#0141b:0013001300131300
#01414:00000000000000000000000000130000
#01416:00000013
#01418:26
#01410:41
#01512:0013001300130013
#01516:00000000130000000000000000130000
#0151b:0000130013001313
#01515:13
#01517:0000001300000000
#02157:53
#0215b:00230000
#02152:13
#02357:52
#02353:0022000000000000
#02355:00520000
#0235a:14
#02852:5300000000630000
#02857:0023000063000000
#03252:1c640000
#0325a:00540000
#03256:000000000000000000000000000000000000000000000000000000000000000000000000000000000000000000000000000000000000000000000000000000000000000000000024240000000000000000000000000000000000000000000000000000000000000000000000000000000000000000000000000000000000000000000000000000000000000000000000140000000000000000000000000000000000000000000000000000000000000000000000000000000000000000000000
#03258:0000000000000044
#03254:0000000000000034
#02956:00535300
#0295b:0000000000530000
#0355b:1313
#03552:00130000
#03558:00000046
#03555:0000000000000016
#01852:0000002600000000
#01858:00660000
#01855:1600000000004636
#0205b:53
#02056:0023000000000000
#02057:53
#02052:0023000000000000
#0345b:2323
#03455:0053235300530000
#03458:0063236300630000
#03452:2323
#03352:0000000053000000000000230000000000000000000000000000000000000000
#03358:00000000000000000000000000000000630000000000000000000000005300000000000000000000000000000000000000000000000000006300000000000000
#03355:00000000000000000000000000000000530000000000000000000000005300000000000000000000000000000000000000000000000000000000000000000000
#0335b:0000000063000000000000230000000000000000000000000000000000000000
#0025c:0000000000220000
#00256:0022000000000000
#00258:0052
#00252:52
#00356:62
#00352:0022000000000000
#0035c:0062
#00358:0000000000220000
#02252:63136414
#02256:002300000000002400002400
#02254:006300006400
#0225b:13531300
#02257:002300
#02259:000000000053000000000000
#0225a:00000054
#02258:000000000000000000000054
#0045b:4300000000000053
#00456:63630000
#00452:0023002300000000
#00557:2300005300000000
#0055b:0023
#0065b:00000053000000000000000000000000
#00656:00000053000000000000000000000000
#00652:13
#00756:13000023000000000000000000000000
#0075b:00000023000000000000000000000000
#01952:0000000000000000000000230000000000000000000000001600000063000000
#01957:0000000000000000000000230000000000000000000000000000000000000000
#01956:0000630000000063
#0195b:00630000
#01958:00000016
#02456:52
#02458:0052
#03054:00000000000000000063006300630063
#03056:00632323
#03052:0000000000230023
#04055:1600000000003646
#04058:0000002600000000
#04052:00560000
#0455b:0022000000000000
#04559:00620000
#04552:14
#04557:62
#04658:52
#00852:3300000000000063
#00857:53530000
#0085b:0023002300000000
#00956:2300006300000000
#00952:0023
#01052:00000063000000000000000000000000
#01057:00000063000000000000000000000000
#0105b:13
#01157:13000023000000000000000000000000
#01152:00000023000000000000000000000000
#01257:0000000000220000000000000000000000000000000000000000000000000000
#01256:54
#03656:0023000000000063
#03652:36
#0365b:63
#03757:00630000
#0375b:0000002300630000
#03752:0000000063000013
#03956:00006300000000000023000000000000
#03957:00000000000063000000000000235300
#0395b:00136363
#03952:1300000013630000
#0415b:0000000000000000000000230000000000000000000000000000000053000000
#04156:0000000000000000000000230000000000000000000000000000000000000000
#04157:0000530000000053
#04152:00530016
#04158:00000016
#04957:0000000000220000
#04954:0062
#04952:0022000000000000
#04956:52
#04958:0022000000000000
#0495c:52
#04356:63
#04352:00230000
#0435b:13
#04252:63
#04257:0023000000000000
#04256:63
#0425b:0023000000000000
#04758:62
#0475c:0022000000000000
#04756:0022000000000000
#04752:62
#04452:13631364
#04457:002300000000000000000000
#04459:005300000000
#04456:000000002300002400002400
#04454:000000000063000000000064
#04458:000054
#0445b:53130000
#0445a:00005414
#0175b:1300000013530000
#01752:00135353
#01757:00005300000000000023000000000000
#01756:00000000000053000000000000236300
#01452:53
#01457:0023000000000053
#01458:46
#01556:00530000
#01552:0000002300530000
#0155b:0000000053000013
#000320:12
#000360:00220000
#0003c0:0012
#000380:00000022
#001360:12
#001320:00220000
#001380:0012
#0013c0:00000022
#002320:12220000
#002360:0052000000000000
#002380:00001222
#0023c0:0000000000520000
#003360:12220000
#003320:0052000000000000
#0033c0:00001222
#003380:0000000000520000
#004360:13332300
#004320:0033003300000000
#0043b0:0000000000000013
#005370:53
#0053b0:0023000000000000
#005371:0013230000000000
#005371:0000001300230000
#0053b1:0053
#005320:0000000000132300
#006360:00000013000000000000000000000000
#006320:0000002300000000
#0063b1:00000013000000000000000000000000
#006371:0000002300000000
#0073b1:00000013000000000000000000000000
#007371:0000002300000000
#007360:00000013000000000000000000000000
#007320:0000002300000000
#008370:13332300
#0083b0:0033003300000000
#008320:0000000000000013
#009360:53
#009320:0023000000000000
#009361:0013230000000000
#009361:0000001300230000
#009321:0053
#0093b0:0000000000132300
#010370:00000013000000000000000000000000
#0103b0:0000002300000000
#010321:00000013000000000000000000000000
#010361:0000002300000000
#011321:00000013000000000000000000000000
#011361:0000002300000000
#011370:00000013000000000000000000000000
#0113b0:0000002300000000
#012360:14000000005455555555555555565656
#012370:0000000000520000000000000000000000000000000000000000000000000000
#012350:0000000000000000000000000000000000000000000000000000000000000000000000000000000000550000000000000055000000000000005500000000000000550000000000000055000000000000005500000000000000550000000000000000000000000000000000000000000000000000000000000000000000000000
#012340:0000000000000000000000000000000000000000000000000000000000000000000000000000000000000000000000000000000000000000000000000000000000000000000000000000000000000000000000000000000000000000000000000056000000000000005600000000000000560000000000000000000000000000
#012330:0000000000000000000000000000000000000000000000000000000000000000000000000000000000000000000000000000000000000000000000000000000000000000000000000000000000000000000000000000000000000000000000000000000000000000000000000000000000000000000000000057000000000000
#013360:57575757000000000000000000000000
#013330:0057000000000000005700000000000000570000000000000000000000000000000000000000000000000000000000000000000000000000000000000000000000000000000000000000000000000000000000000000000000000000000000000000000000000000000000000000000000000000000000000000000000000000
#013320:0000000000000000000000000000000000000000000000000059000000000000005900000000000000590000000000000059000000000000005900000000000000000000000000000000000000000000000000000000000000000000000000000000000000000000000000000000000000000000000000000000000000000000
#013350:00000000595959592900000000000000
#014320:13230000
#014370:0053000000000000
#014370:0000000000000013
#0153b0:0023000000000000
#015360:00132300
#015320:0000005300000000
#0153b1:0013
#015371:0000000000230000
#015320:0000000000130000
#015360:00000023
#0163b0:00000000000000000000000000000000000000000000000000000000000000001300000000000000005300000000000023000000000000000000000000000000
#016370:00000000000000000000000000000000000000000000000000000000000000000000530000000053000000000000000000000000000000000000000000000000
#016390:0000000000330000
#016361:00000000000000000000000000000000000000000000000000000000000000001300000000000000005300000000005300000000000000000000000000000000
#016321:00000000000000000000000000000000000000000000000000000000000000000000530000000053000000000000000000530000000000002300000000000000
#016341:0000000000333300
#017371:1333000000000000
#017321:00000053230000000000000000000000
#017360:0000133300000000
#0173b0:00000000000000532300000000000000
#017321:0000000013230000
#017371:00000000000000000053000000000000
#0173b0:0000000000130000
#017360:00000023
#017321:0000000000001323
#017361:00000000000000000000000000530000
#017360:0000000000000013
#0183b0:23
#018380:00162600
#018320:0000005600000000
#019360:00000000130000230000000000000000
#019320:0000000000000000000000530000000000000000000000000000000000000000
#0193b1:00000000130000230000000000000000
#019371:0000000000000000000000530000000000000000000000000000000000000000
#019361:0000000000000013
#0203b1:33230000
#020361:0053000000000000
#019320:0000000000000013
#020370:33230000
#020320:0053000000000000
#020370:0000000000000000000000000000000013000000005300002300000000000000
#0203b0:0000000000000000000000000000000000530000330000000000000000000000
#020321:0000000000000000000000000000000000000000000000001300000000530000
#020361:0000000000000000000000000000000000000000000000000053000033000000
#021321:23
#021370:1323
#0213b0:00530000
#022320:13230000
#022360:005300000000000000000000
#022340:005300000000
#0223b1:00132300
#022371:005300
#022391:000000000053000000000000
#022320:00001424
#022360:000000000000005400000000
#022340:000054
#0223a1:00000014
#022361:000000000054
#022381:000000000000000000000054
#0233a1:24
#023370:1200005222000000
#023330:0052000000000000
#023350:00320000
#024360:12
#024320:0022
#024381:0012
#0253c1:22
#025320:1232003222000000
#025360:00320000
#0253c1:0000000012320032
#025381:00000032
#0263c1:22
#026340:1222
#026360:0032003200000000
#026320:00320000
#0263a1:0012
#026381:0000000000320032
#0263c1:00000032
#0273a1:22
#027370:1200003200000000
#027350:00000000000000320000000000000000
#027330:0022
#028320:13230000
#028370:0053000000000000
#028370:00001323
#028320:0000000000330000
#028370:0000000000000013
#029370:23
#029360:00130000
#0293b0:00000000000000230000000000000000
#029360:00001323
#0293b0:0000000000330000
#029360:0000000000000013
#030360:23
#030360:00130000
#030320:0000002300000000
#030360:00001333
#030340:00000000000000000053005300530053
#030320:0000000000330033
#031360:3222
#0323a0:00142400
#032360:000000000000000000000000000000000000000000000000000000000000000000000000000000000000000000000000000000000000000000000000000000000000000000000054000000000000000000000000000000000000000000000000000000000000000000000000000000000000000000000000000000000000000000000000000000000000000000000000000000000000000000000000000000000000000000000000000000000000000000000000000000000000000000000000
#032321:00142400
#032361:0000005400000000
#033321:0000000013000000000000530000000000000000000000000000000000000000
#033351:00330000
#033371:00000000000000330000000000000000
#033381:00000000000000000000000000000000000000000000000000000000005300000000000000000000000000000000000000000000000000000000000000000000
#0333b1:0000000000000000000000000000000033530000230000000000000000000000
#0333b0:0000000013000000000000530000000000000000000000000000000000000000
#033380:00330000
#033350:00000000000000000000000000000000000000000000000000000000005300000000000000000000000000000000000000000000000000000000000000000000
#033320:0000000000000000000000000000000033530000230000000000000000000000
#033380:0000000000000013
#0343b0:3333
#034380:0053005300530000
#034350:00330023
#034321:1353
#034351:0053005300530000
#034381:00530023
#035321:0000000013332300
#035361:00000000000000000033003300000000
#0363b1:13230000
#036361:0053000000000000
#036361:0000000000000013
#037321:0023000000000000
#037371:00132300
#0373b1:0000005300000000
#037320:0013
#037360:0000000000230000
#0373b1:0000000000130000
#037371:00000023
#038321:00000000000000000000000000000000000000000000000000000000000000001300000000000000005300000000000023000000000000000000000000000000
#038361:00000000000000000000000000000000000000000000000000000000000000000000530000000053000000000000000000000000000000000000000000000000
#038341:0000000000330000
#038370:00000000000000000000000000000000000000000000000000000000000000001300000000000000005300000000005300000000000000000000000000000000
#0383b0:00000000000000000000000000000000000000000000000000000000000000000000530000000053000000000000000000530000000000002300000000000000
#038390:0000000000333300
#039360:1333000000000000
#0393b0:00000053230000000000000000000000
#039371:0000133300000000
#039321:00000000000000532300000000000000
#0393b0:0000000013230000
#039360:00000000000000000053000000000000
#039321:0000000000130000
#039371:00000023
#0393b0:0000000000001323
#039370:00000000000000000000000000530000
#039371:0000000000000013
#040321:23
#040321:00162600
#040381:0000005600000000
#041371:00000000130000230000000000000000
#0413b1:0000000000000000000000530000000000000000000000000000000000000000
#041320:00000000130000230000000000000000
#041360:0000000000000000000000530000000000000000000000000000000000000000
#041370:0000000000000013
#042320:33230000
#042370:0053000000000000
#0413b1:0000000000000013
#042361:33230000
#0423b1:0053000000000000
#042361:0000000000000000000000000000000013000000005300002300000000000000
#042321:0000000000000000000000000000000000530000330000000000000000000000
#0423b0:0000000000000000000000000000000000000000000000001300000000530000
#042370:0000000000000000000000000000000000000000000000000053000033000000
#0433b0:23
#043361:1323
#043321:00530000
#0443b1:13230000
#044371:005300000000000000000000
#044391:005300000000
#044320:00132300
#044360:005300
#044340:000000000053000000000000
#0443a1:00001424
#044361:000000000000005400000000
#044381:000054
#044320:00000014
#044360:000000000054
#044340:000000000000000000000054
#045320:24
#045371:1200005222000000
#0453b1:0052000000000000
#045391:00320000
#046381:12
#0463c1:0000002200000000
#047381:12220000
#0473c1:0052000000000000
#047320:12220000
#047360:0052000000000000
#049360:12220000
#049320:0052000000000000
#0493c1:12220000
#049381:0052000000000000
#049341:0012
#049371:0000000000520000
#049321:00000022
#050361:13
#0523c1:22
#050320:13
#052390:22
