This file was generated by Ched 2.7.0.0.
#TITLE ""
#ARTIST ""
#DESIGNER ""
#DIFFICULTY 0
#PLAYLEVEL
#SONGID ""
#WAVE ""
#WAVEOFFSET 0
#JACKET ""
#REQUEST "ticks_per_beat 480"
#00002: 4
#BPM01: 85
#00008: 01
#TIL00: ""
#HISPEED 00
#MEASUREHS 00
#0391a:00140000
#03912:14
#03918:0000000000250025
#03913:00002525
#0371a:00000014
#03714:0014
#03718:00140000
#03712:14
#0361a:00000014
#03614:0014
#03618:00140000
#03612:24
#0361f:21
#03610:0041
#03818:00001414
#03814:14140000
#04212:14
#04218:0014
#04118:00000014
#04112:14
#04114:0014
#0411a:00140000
#04018:00000014
#04014:0014
#0401a:00140000
#04013:25
#0201a:14
#02014:0014
#01914:00000014
#0191a:14
#01918:0014
#01912:00140000
#01910:00000041
#04314:0000001400000000
#04312:14
#01712:00140000
#0171a:14
#01713:0000000000250025
#01718:00002525
#01512:00000014
#01518:0014
#01514:00140000
#0151a:14
#01412:00000014
#01418:0014
#01414:00140000
#0141a:24
#01410:41
#00918:00140014
#00912:1414
#0081a:00140014
#00814:1414
#00810:41
#0051a:00140014
#00514:1414
#00418:00140014
#00412:1414
#03412:00000014
#0341a:14
#03418:00340000
#0351a:00000014
#03512:14
#03514:00340000
#0331a:14
#03312:00000014
#03318:0014
#03314:00140000
#03212:00000014
#03218:0014
#03214:00140000
#0321f:11
#02118:0000001400000000
#0211a:14
#0111a:14
#01118:00340000
#01012:14
#01014:00340000
#00718:14
#0071a:00340000
#00614:14
#00612:00340000
#04818:0014
#04812:14
#04614:0014
#0461a:14
#03014:1414
#02918:1414
#02812:1414
#01814:00000014
#01818:2514
#01812:00140000
#01614:00001414
#01618:14140000
#0031a:0014
#00316:00140000
#00312:14
#00112:00000014
#00114:00140000
#0011a:14
#00118:0014
#0311a:2424
#03110:41
#04512:24
#04416:0024
#04414:00000024
#04418:00240000
#0441a:24
#0231a:24
#02216:0024
#02218:00000024
#02214:00240000
#02212:24
#00218:00343400
#00014:00343400
#02510:41
#0325a:14
#04053:15
#01858:15
#04252:64
#04258:0064
#0205a:54
#02054:0054
#04354:0000002400000000
#04352:54
#03552:64
#0345a:54
#02158:0000002400000000
#0215a:64
#0115a:64
#01052:54
#00758:54
#00654:64
#000320:14
#000340:00343424
#0023a0:14
#002380:00343424
#006340:14
#006320:00343424
#007380:14
#0073a0:00343424
#010320:14
#010340:00343424
#0113a0:14
#011380:00343424
#012330:14
#013320:0026
#0203a0:14
#020380:00240000
#020340:0014
#020320:00000024
#0213a0:14000024
#021380:0000005400000000
#0233a0:1424
#024320:1424
#0253a0:1424
#026340:1424
#027380:1424
#0313a0:0000000014343434
#0323a0:24
#0343a0:14
#034380:00342400
#035320:14
#035340:00342400
#042320:14
#042340:00240000
#042380:0014
#0423a0:00000024
#043320:14000024
#043340:0000005400000000
#045320:1424
#0473a0:14
#047380:0024
#049320:14
#049340:0024
#050380:14
#0523a0:24
