This file was generated by Ched 2.7.0.0.
#TITLE ""
#ARTIST ""
#DESIGNER ""
#DIFFICULTY 0
#PLAYLEVEL
#SONGID ""
#WAVE ""
#WAVEOFFSET 0
#JACKET ""
#REQUEST "ticks_per_beat 480"
#00002: 4
#BPM01: 135
#00008: 01
#TIL00: ""
#HISPEED 00
#MEASUREHS 00
#00418:14
#00518:14
#00614:14
#00714:14
#0081a:14
#00810:41
#00912:14
#01018:14
#0121a:14
#01114:14
#01312:14
#01612:14
#01610:41
#0171a:14
#01814:14
#02012:14
#01918:14
#0211a:14
#03212:0016
#03218:26
#0321f:21
#03210:00000041
#03412:16
#03418:0016
#03512:16
#03518:0016
#03612:16
#03618:0016
#03818:16
#03812:0016
#03918:16
#03912:0016
#04012:0016
#04018:26
#04418:0016
#04412:16
#04512:1616
#05612:14
#0571a:14
#04118:1616
#0241f:11
#02310:41
#04210:41
#05010:41
#000390:14
#001390:24
#002330:14
#003330:24
#014380:1434
#015380:24
#022340:1434
#023340:24
#0243a0:14
#025380:34
#026380:34
#0273a0:24
#028320:14
#029340:34
#030340:34
#031320:24
#033380:1626
#037320:1626
#042320:1626
#043380:1626
#046380:1626
#047320:1626
#048380:16
#049380:26
#049320:0000000016000036
#051320:26
#051380:0000000016000036
#052380:0000000000003636
#053380:0000363600003636
#055380:0026
#058340:1400000000000034
#059340:0000003400000034
#060340:0000003400000034
#061340:0034003400340034
#062340:0034003400340034
#063340:0000000000000034
#064340:0000000000240000
