This file was generated by Ched 2.7.0.0.
#TITLE ""
#ARTIST ""
#DESIGNER ""
#DIFFICULTY 0
#PLAYLEVEL
#SONGID ""
#WAVE ""
#WAVEOFFSET 0
#JACKET ""
#REQUEST "ticks_per_beat 480"
#00002: 4
#BPM01: 135
#00008: 01
#TIL00: ""
#HISPEED 00
#MEASUREHS 00
#00012:0000131313000000
#00017:00000000000000130000130000000000
#00016:13
#00116:0013000000000000
#00112:0000130000230000
#00118:0000001313000000
#0011b:0000130000230000
#00115:00000000000000130000000000000000
#00415:0000131313000000
#0041b:0000000000130000
#00418:00000000000000130000000000001300
#00515:00001300000000130000000000000000
#00512:0000130000230000
#00518:0000131313000000
#0051b:0013000000230000
#00817:0013001300000000
#00812:23130013
#00816:0000000000130013
#0081b:0000000000000013
#00810:41
#00912:0013000000130000
#0091b:0000130000000013
#00918:0000001300000000
#00915:0013
#01018:0013000000000000
#01012:0000130000130000
#01016:0000001300001300
#01017:0000000000000013
#01015:23
#0111b:0013000000000000
#01118:00130000
#01115:0000001300000000
#01112:0000000013000013
#01117:0013
#01215:0013000023000000
#0121b:0000130000001323
#01218:2300000000130000
#01216:0000000000000013
#01212:0000001300000000
#01317:0000001300000000
#01312:0013132300000000
#01314:0000000000000013
#01319:0000000000000013
#0241a:1400000000001414
#02412:14
#02416:0000001400000000
#0241f:11
#02512:0000141400000000
#02516:00140000000000000014000000000000
#0251a:0000000000001414
#02612:0000141400000013
#02616:00140000000000000014000000000000
#0261a:00000014
#0261b:0000000000000013
#02812:1400000000001414
#0281a:14
#02816:0000001400000000
#0291a:0000141400000000
#02916:00140000000000000014000000000000
#02912:0000000000001413
#0291b:0000000000000013
#03012:0000000000130000
#0301b:0000000000130000
#03015:0013000000000013
#03018:0013000000001300
#03315:00000000000000000023000000001300
#0331b:1323
#03316:13
#03312:00130000
#03314:0013000000000000
#03319:0033001300000000
#03318:0000000000230000
#0341b:1300130013130000
#03418:0013000000000000
#03412:13131300
#03415:0000001300000000
#03416:0000000000130000
#0351b:13131300
#03512:13131323
#03515:0013000000130000
#03518:0000001300002300
#03612:1313
#03617:2313
#0361b:00130013
#03614:0000001300330013
#03619:0000000000130000
#03712:1323
#03717:13
#0371b:00130000
#03718:00000000000000000023000000001300
#03719:0013000000000000
#03714:0033001300000000
#03715:0000000000230000
#04012:23131300
#04016:0000001300130000
#0401b:1300000013131300
#04017:0013000000000013
#04112:1313131300000000
#0411b:1300001300000013
#04117:0013000000000000
#04116:0000000000000013
#04118:0000000023230000
#04115:00000000000000000023000000000000
#04217:1300000013130000
#04212:1300000013130000
#04219:0013000000000000
#0421b:00130000
#04216:00130000
#04214:0000001300000013
#04210:41
#04312:13002323
#04317:13002323
#04319:0013000000000000
#0431b:0000130000230000
#04316:0000130000230000
#04314:0000001300000000
#0451b:1313131300000000
#04512:1300001300000013
#04517:0000000000000013
#04516:0013000000000000
#04515:0000000023230000
#04518:00000000000000000023000000000000
#04912:0000001300000000
#0491b:0000001300130013
#04918:0013000000000000
#04915:00130000
#04917:00001313
#0521b:00000013
#05216:13
#05212:0000001300000013
#05217:0000130013000013
#0561b:1300130000130000
#05615:00000000000000130000000000000000
#05618:0000001313000000
#05612:0000000000130000
#06215:0000000000000013
#06217:0023000000230000
#06212:0023000000230000
#06216:0000002300000000
#0621b:0000002300000000
#06318:0013000000130000
#06315:0000001300000000
#06316:0000000000000012
#06418:0012000000120000
#06416:0000001200000000
#05419:14141414141414141414141414141414
#0541a:0000001400000014000000140000001400000014000000140000001400000014
#05418:0014000000140000001400000014000000140000001400000014000000140000
#05413:14141414141414141414141414141414
#05414:0000001400000014000000140000001400000014000000140000001400000014
#05412:0014000000140000001400000014000000140000001400000014000000140000
#05519:14141414141414140000000000000000
#0551a:0000001400000014000000140000001400000000000000000000000000000000
#05518:0014000000140000001400000014000000000000000000000000000000000000
#05513:14141414141414140000000000000000
#05514:0000001400000014000000140000001400000000000000000000000000000000
#05512:0014000000140000001400000014000000000000000000000000000000000000
#05319:00000000000000000000000000001414
#0531a:0000000000000000000000000000000000000000000000000000000000000014
#05318:0000000000000000000000000000000000000000000000000000000000140000
#05313:00000000000000000000000000001414
#05314:0000000000000000000000000000000000000000000000000000000000000014
#05312:0000000000000000130000000000000000001300000000000000000000140000
#0531b:00130000000013000000000013000000
#05316:0000001300000000
#01412:1313
#0141b:1313
#01419:0013000000000013
#01416:00140014
#01414:0000001300130000
#0151b:13130000
#01512:13130000
#01514:0013000000000000
#01519:0013000000000000
#02119:0000000000000013
#02114:0000000000000013
#02116:0000001300000000
#0211b:0013132300000000
#0221b:1313
#02212:1313
#02214:0013000000000013
#02216:00140014
#02219:0000001300130000
#02312:13130000
#0231b:13130000
#02319:0013000000000000
#02314:0013000000000000
#02310:41
#0321b:1313
#03212:00130013
#03216:2313
#03219:0000001300330013
#03214:0000000000130000
#0321f:21
#03210:00000041
#0021b:0000131313000000
#00216:00000000000000130000130000000000
#00317:0013000000000000
#0031b:0000130000230000
#00315:0000001313000000
#00312:0000130000230000
#00318:00000000000000130000000000000000
#03812:1300130013130000
#03815:0013000000000000
#0381b:13131300
#03818:0000001300000000
#03817:0000000000130000
#03912:13131300
#0391b:13131323
#03918:0013000000130000
#03915:0000001300002300
#04616:1300000013130000
#0461b:1300000013130000
#04614:0013000000000000
#04612:00130000
#04617:00130000
#04619:0000001300000013
#0471b:13002323
#04716:13002323
#04714:0013000000000000
#04712:0000130000230023
#04717:0000130000230023
#04719:0000001300000000
#00618:0000131313000000
#00612:0000000000130000
#00615:00000000000000130000000000000000
#0061b:0000000000130000
#00616:0000000000000024
#01616:0013001300000000
#0161b:23130013
#01617:0000000000130013
#01612:0000000000130013
#01614:0013
#01610:41
#0171b:0013000000130000
#01712:0000130000000013
#01715:0000001300000000
#01718:0013
#02017:0000000000000013
#02018:0013000023000000
#02012:0000130000001323
#02015:2300000000130000
#0201b:0000001300000000
#02718:0000001300000000
#02715:0000001300000000
#02712:0000000000000014
#0271a:0000000000000014
#03112:1300242400000000
#0311b:1300000000000023
#0311a:0000242400000000
#03116:0000000000000023
#0441b:23131300
#04417:0000001300130000
#04412:1300000013131300
#04416:0013000000000013
#05712:0000130000230000
#0571b:0000130000230000
#05715:0000001323000000
#05718:00000000000000130000000000000000
#05812:0000130000130000
#05818:00000000000000130000000000000000
#05815:0000001313000000
#0581b:0000000000130000
#05816:0000000000000024
#0481b:13
#04816:13
#04817:0013
#04812:0013
#05012:13
#05017:13
#0501b:0000000000130000
#05016:0000000000130000
#05010:41
#05116:00001313
#05112:0000000000130013
#01815:0013000000000000
#0181b:0000130000130000
#01817:0000001300001300
#01816:0000000000000013
#01818:23
#01912:0013000000000000
#01915:00130000
#01918:0000001300000000
#0191b:0000000013000013
#01916:0013
#00714:0023000000000000
#00713:0000002300000000
#00712:0000000000230000
#00719:0023000000000000
#0071a:0000002300000000
#0071b:0000000000230000
#05916:0000000000000023
#0591b:0000000000230023
#05919:0023000000000000
#0591a:0000002300000000
#05914:0023000000000000
#05913:0000002300000000
#05912:0000000000230000
#06017:0023000000230000
#06012:0023000000230000
#06016:0000002300000023
#0601b:0000002300000023
#06117:0023000000230000
#06112:0023000000230000
#06116:0000002300000023
#0611b:0000002300000023
#01152:0063
#01157:0063
#01357:0000006300000000
#01352:0000006300000000
#01356:0000000000130000
#0135b:0000000000130000
#0125b:0000000000000063
#02452:64
#02456:0000002400000000
#0245a:0000000000000054
#02556:00240000000000000024000000000000
#02552:0000006400000000
#0255a:0000000000000054
#02656:00240000000000000024000000000000
#02652:0000006400000063
#0265b:0000000000000053
#0285a:54
#02856:0000002400000000
#02852:0000000000000064
#02956:00240000000000000024000000000000
#0295a:0000005400000000
#02952:0000000000000063
#0295b:0000000000000053
#0345b:0000130000530000
#03452:1313
#03456:0000000000530000
#03652:6363
#03657:13
#03752:63
#04057:0023000000000000
#0405b:53430000
#04052:13006333
#04056:0000000000230000
#0415b:53430000
#04157:0023000000000000
#04257:0000000000630000
#0425b:00130000
#04252:13
#03055:0023000000000000
#03058:0023000000000000
#05559:54545454545454541400000000000000
#0555a:0000002400000024000000240000002400000000000000000000000000000000
#05558:0024000000240000002400000024000000000000000000000000000000000000
#05553:54545454545454541400000000000000
#05554:0000002400000024000000240000002400000000000000000000000000000000
#05552:0024000000240000002400000024000000000000000000000000000000000000
#05459:54545454545454545454545454545454
#0545a:0000002400000024000000240000002400000024000000240000002400000024
#05458:0024000000240000002400000024000000240000002400000024000000240000
#05453:54545454545454545454545454545454
#05454:0000002400000024000000240000002400000024000000240000002400000024
#05452:0024000000240000002400000024000000240000002400000024000000240000
#05359:00000000000000000000000000005454
#0535a:0000000000000000000000000000000000000000000000000000000000000024
#05358:0000000000000000000000000000000000000000000000000000000000240000
#05353:00000000000000000000000000005454
#05354:0000000000000000000000000000000000000000000000000000000000000024
#05352:0000000000000000000000000000000000002300000000000000000000240000
#05356:0000005300000000
#0535b:00230000000000000000000000000000
#00952:0000000000130000
#01555:00000013
#01558:00000013
#0155b:00530000
#01552:00530000
#0325b:5353
#03256:13
#0335b:53
#0355b:1313
#03552:00130013
#03558:00000013
#03852:0000130000630000
#0385b:1313
#03857:0000000000630000
#03952:1313
#0395b:00130013
#03955:00000013
#04352:13001313
#0435b:0000130000130000
#0465b:13
#04652:00130000
#04656:0000000000530000
#0475b:13001313
#04752:0000130000130013
#0605b:0000000000000013
#0615b:0000001300000013
#06152:0013000000130000
#06156:0000000000000013
#0625b:0000001300000000
#06252:0013000000130000
#06257:0013000000130000
#06256:0000001300000000
#0085b:0000000000000053
#00857:0000006300000000
#02156:0000005300000000
#0215b:0000005300000000
#02152:0000000000130000
#02157:0000000000130000
#0175b:0000000000130000
#01652:0000000000000063
#02052:0000000000000053
#0235b:00630000
#02352:00630000
#02358:00000013
#02355:00000013
#02758:0000005300000000
#02755:0000005300000000
#04452:63330000
#04456:0023000000000000
#0445b:13005343
#04457:0000000000230000
#04552:63330000
#04556:0023000000000000
#0485b:53
#04856:53
#04857:0023
#04852:0023
#05056:0000000000230000
#0505b:0000000000230000
#05052:53
#05057:53
#05256:53
#05252:0000002300000000
#05257:0000000000000053
#0075b:0000000000130000
#00752:0000000000130000
#0195b:0053
#01956:0053
#0575b:0000000000130000
#03152:13
#0315b:13
#0003b0:13
#000370:00230000
#000320:0000000000130000
#000360:0000000000000023
#0003b1:0000000000000013
#0013b1:0023000000000000
#0013b1:0000000000130000
#0023b1:23
#002320:13
#002360:00230000
#0023b0:0000000000130000
#002370:0000000000000023
#002321:0000000000000013
#003321:0023000000000000
#003321:0000000000130000
#004321:23
#0043b0:13
#004380:00230000
#004320:0000000000130000
#004350:0000000000000023
#0053b0:0000000000130000
#0063b0:23
#006321:13
#006351:00230000
#008371:0000001300000000
#0083b1:0000000000230000
#0083b1:0000000000000013
#009371:0023000000000000
#0103b1:0000001300000000
#010371:0000000000230000
#010321:0000000000000013
#011361:0023000000000000
#011321:0013
#011361:00000023
#011370:0013
#0113b0:00000023
#0123b0:0000000000000013
#013370:0033333300000000
#0133b0:0000000000230000
#013321:0000001300000000
#013361:0000000000230000
#015321:00130000
#015351:00000023
#0153b0:00130000
#015380:00000023
#016320:0000000000000013
#017360:0023000000000000
#018320:0000001300000000
#018360:0000000000230000
#0183b0:0000000000000013
#019370:0023000000000000
#0193b0:0013
#019370:00000023
#019361:0013
#019321:00000023
#020321:0000000000000013
#021361:0033333300000000
#021321:0000000000230000
#0213b0:0000001300000000
#021370:0000000000230000
#0233b0:00130000
#023380:00000023
#023321:00130000
#023351:00000023
#024321:14000024
#024361:0000005400000000
#0243a1:0000000000000014
#025361:00540000000000000000000000000000
#0253a1:00240000
#025321:0000001400002400
#025361:00000000000000000054000000000000
#0253a1:0000000000000014
#026361:00540000000000000000000000000000
#0263a1:00240000
#026321:0000001400002400
#026361:00000000000000000054000000000000
#026321:0000000000000013
#027351:00230000
#0263b0:0000000000000013
#027380:00230000
#027380:0000001300000000
#0273b0:0000000000230000
#027351:0000001300000000
#027321:0000000000230000
#0283a1:14000024
#028361:0000005400000000
#028321:0000000000000014
#029361:00540000000000000000000000000000
#029321:00240000
#0293a1:0000001400002400
#029361:00000000000000000054000000000000
#029321:0000000000000013
#030351:0053000000000000
#030321:0000002300000000
#0293b0:0000000000000013
#030380:0053000000000000
#0303b0:0000002300000000
#0323b0:13
#032370:00230000
#0323b0:0013
#032390:0000000000330000
#032370:00000023
#0333b0:13
#033390:0033000000000000
#033370:00230000
#0343b0:0000000000130000
#034370:0000000000000023
#034361:0000000000130000
#034321:0000000000000023
#036321:13
#036361:00230000
#036321:0013
#036341:0000000000330000
#036361:00000023
#037321:13
#037341:0033000000000000
#037361:00230000
#038321:0000000000130000
#038361:0000000000000023
#038370:0000000000130000
#0383b0:0000000000000023
#0403b0:13230000
#040370:0053000000000000
#040320:00001323
#040360:0000000000330000
#0413b0:13230000
#041370:0033000000000000
#042370:0000000000130000
#0423b0:0000000000000023
#044320:13230000
#044360:0053000000000000
#0443b0:00001323
#044370:0000000000330000
#045320:13230000
#045360:0033000000000000
#046360:0000000000130000
#046320:0000000000000023
#0483b0:13
#048370:0053
#0493b0:23
#048361:13
#048321:0053
#049361:23
#049321:0013
#050321:33
#050361:0000000000530000
#051321:00230000
#050370:13
#0503b0:0000000000530000
#051370:00230000
#0513b0:0013
#0523b0:23
#052361:13000023
#052321:0000005300000000
#052371:0000000000000013
#0533b1:00530000000000000000000000000000
#053371:00230000
#053361:0000001300002300
#053321:00000000000000000053000000000000
#053391:00000000000000000000000000001454
#053381:0000000000000000000000000000000000000000000000000000000000540000
#0533a1:0000000000000000000000000000000000000000000000000000000000000054
#054391:54545454545454545454545454545454
#054381:0054000000540000005400000054000000540000005400000054000000540000
#0543a1:0000005400000054000000540000005400000054000000540000005400000054
#055391:54545454545454542400000000000000
#055381:0054000000540000005400000054000000000000000000000000000000000000
#0553a1:0000005400000054000000540000005400000000000000000000000000000000
#053330:00000000000000000000000000001454
#053320:0000000000000000000000000000000000000000000000000000000000540000
#053340:0000000000000000000000000000000000000000000000000000000000000054
#054330:54545454545454545454545454545454
#054320:0054000000540000005400000054000000540000005400000054000000540000
#054340:0000005400000054000000540000005400000054000000540000005400000054
#055330:54545454545454542400000000000000
#055320:0054000000540000005400000054000000000000000000000000000000000000
#055340:0000005400000054000000540000005400000000000000000000000000000000
#056320:13
#056360:00230000
#056320:0000000000000013
#057320:0023000000000000
#0563b1:0000000000000013
#0573b1:0023000000000000
#057321:0000000000130000
#058321:23
#0583b0:13
#058370:00230000
