This file was generated by Ched 2.7.0.0.
#TITLE ""
#ARTIST ""
#DESIGNER ""
#DIFFICULTY 0
#PLAYLEVEL
#SONGID ""
#WAVE ""
#WAVEOFFSET 0
#JACKET ""
#REQUEST "ticks_per_beat 480"
#00002: 4
#BPM01: 135
#00008: 01
#TIL00: ""
#HISPEED 00
#MEASUREHS 00
#00015:0013
#00018:0000000000130000
#0001b:1300130000000013
#00012:1300130000000013
#00818:0013000000000000
#00815:00130000
#00812:23000013
#0081b:0000000000000013
#00810:41
#00915:00131300
#0091b:0000001300130000
#00912:0000000000000013
#01018:23130013
#01012:0013000000000000
#01212:0013000000000023
#01218:23130000
#01215:0000001300130000
#0121b:00002313
#02412:14
#02415:0000001400000000
#0241b:0000000000000013
#0241f:11
#03312:0000000000000013
#03318:0000130023230000
#03315:00000000000013000023000000000000
#0621b:0023002300230013
#06212:0023002300230000
#0631b:0000001300000000
#06312:0013000000130000
#06318:0000000000000013
#01515:13
#01518:0013000000000000
#00115:00131300
#00118:0013000000230000
#03215:0000000000130000
#03218:00001313
#03212:0000001300000013
#0321b:13
#0321f:21
#03210:00000041
#04912:0000000000000014
#0511a:0000000000000014
#05712:0000130023230000
#05718:0013000000000000
#0571b:0000000023230000
#06415:0013000000130000
#06418:0000001300000000
#01315:0000001300000000
#0131b:0000000000000013
#02512:0000001300000000
#0251b:0000000000000013
#02612:0000001300000000
#0261b:0000000000000013
#0281a:14
#02817:0000001400000000
#02812:0000000000000013
#0291b:0000001300000000
#02912:0000000000000014
#03018:0000000000130013
#03015:00000013
#03016:0014000000000000
#03115:1300000000000023
#03112:0000242400000000
#0311a:0000242400000000
#00415:1300000013000013
#0041b:1300000000130013
#00412:00130000
#00418:00130000
#00512:00130000
#00518:0013000000000000
#00515:0013
#0051b:0000000000230000
#01415:13000013
#01418:0013000000130000
#01412:00131300
#0141b:0000001300000013
#01615:0013000000000000
#0161b:23130013
#01612:0000001300130013
#01618:0013
#01610:41
#01718:00131300
#01712:0000001300130000
#0171b:0000000000000013
#02018:0000001300130000
#02012:00002313
#0201b:0013000000000023
#02015:23130000
#02318:13
#02315:0013000000000000
#02310:41
#02118:0000001300000000
#02112:0000000000000013
#02218:13000013
#02215:0013000000130000
#0221b:00131300
#02212:0000001300000013
#0111b:00130000
#01115:0000001300000000
#01118:0013
#01112:0000000000000013
#03418:1313
#03415:0013000000130000
#0341b:00130000
#03412:0000001300000000
#0351b:13000023
#03515:0013000000130000
#03518:0000130013000013
#03512:0000001300002300
#0411b:0000001300000013
#04118:0000130023230000
#04112:0000001300000000
#04115:00000000000000000023000000000000
#04015:0000000000130000
#0401b:13000013
#04012:0000001300000013
#04018:0013
#03915:0000130013000013
#03912:13000023
#03918:0013000000130000
#0391b:0000001300002300
#04218:1313
#04215:0013001300000000
#04212:00130000
#0421b:0000000000130000
#04210:41
#04312:13000023
#04315:0013000000230000
#04318:0000130023000013
#0431b:0000001300002300
#0531b:0000000000000013
#05318:0000001300000000
#05312:0000000000000013
#05315:0000001300000000
#05418:00000000000000000000001300000000
#05415:00000000000000000000001300000000
#0521b:0000000000000013
#05212:0000000000000013
#0561b:1300000000130013
#05615:1313
#05612:0000130000000013
#05618:00130000
#05812:1300000000130000
#05818:1300000013000023
#0581b:00130000
#05815:00130000
#00218:0013
#00215:0000000000130000
#00212:1300130000000013
#0021b:1300130000000013
#00318:00131300
#00315:0013000000230000
#00618:1300000013000024
#00612:1300000000130000
#0061b:00130000
#00615:00130000
#02715:0000001300000000
#02712:0000000000130000
#0271b:0000000000130000
#02714:0000000000000014
#0371b:0000000000000013
#03715:0000130023230000
#03718:00000000000013000023000000000000
#03618:0000000000130000
#03615:00001313
#0361b:0000001300000013
#03612:13
#03815:1313
#03818:0013000000130000
#03812:00130000
#0381b:0000001300000000
#04512:0000001300000013
#04515:0000130023230000
#0451b:0000001300000000
#04518:00000000000000000023000000000000
#04418:0000000000130000
#04412:13000013
#0441b:0000001300000013
#04415:0013
#04615:1313
#04618:0013001300000000
#0461b:00130000
#04612:0000000000130000
#0471b:13000023
#04718:0013000000230000
#04715:0000130023000023
#04712:0000001300002300
#04818:13
#0481b:0000000000130000
#05015:00000000000000000014000000000000
#05010:41
#01815:23130013
#0181b:0013000000000000
#01912:00130000
#01918:0000001300000000
#01915:0013
#0191b:0000000000000013
#00714:0024000000000000
#00718:0000002400000000
#0071a:0000000000240000
#00712:0000000000240000
#06014:0000000000000023
#06019:0000000000000023
#06012:0024000000240000
#0601a:0000002400000000
#06119:0023002300230000
#06114:0023002300230000
#06112:0000000000000023
#0611b:0000000000000023
#05915:0023000000230000
#05918:0000002300000000
#0591a:0000000000000024
#02452:64
#02455:0000002400000000
#0245b:0000000000000053
#0095b:0000000000130000
#01552:00000013
#0615b:0000000000000013
#06152:0000000000000013
#0625b:0013001300130000
#06252:0013001300130000
#04952:0000000000000064
#0515a:0000000000000054
#0085b:0000000000000053
#01355:0000005300000000
#01352:0000000000130000
#01252:0000000000000053
#02552:0000006300000000
#0255b:0000000000000053
#02652:0000006300000000
#0265b:0000000000000053
#0285a:54
#02857:0000002400000000
#02852:0000000000000063
#0295b:0000005300000000
#02952:0000000000000064
#01752:0000000000130000
#01652:0000000000000063
#02158:0000006300000000
#0215b:0000000000130000
#0205b:0000000000000063
#0235b:00000013
#03056:0024000000000000
#03455:0000000000530000
#03252:0000000000000053
#0325b:53
#0425b:0000000000530000
#0405b:53
#04052:0000000000000053
#0535b:0000000000000063
#05358:0000006300000000
#05352:0000000000000053
#05355:0000005300000000
#05458:00000000000000000000002300000000
#05455:00000000000000000000002300000000
#0525b:0000000000000063
#05252:0000000000000053
#05752:0000000000130000
#0575b:0000000000130000
#00752:0000000000140000
#0075a:0000000000140000
#01158:0053
#03858:0000000000630000
#0365b:0000000000000063
#03652:63
#04652:0000000000630000
#04452:63
#0445b:0000000000000063
#04858:63
#0485b:0000000000230000
#05055:00000000000000000024000000000000
#01955:0063
#0083b0:0000001300230000
#0083b0:0000000000000013
#009380:0023000000000000
#010320:0000001300000000
#010350:0000000000230000
#010350:0000000000000013
#011320:0023000000000000
#011380:0013
#0113b0:00000023
#012320:0000000000000013
#013350:0033333300000000
#013320:0000000000230000
#015320:00130023
#016320:0000000000000013
#017350:0023000000000000
#0183b0:0000001300000000
#018380:0000000000230000
#018380:0000000000000013
#0193b0:0023000000000000
#019350:0013
#019320:00000023
#0203b0:0000000000000013
#021380:0033333300000000
#0213b0:0000000000230000
#0233b0:00130023
#024320:14000024
#024350:0000005400000000
#0243b0:0000000000000013
#025380:00230000
#025320:0000001300000000
#025350:00000023
#0253b0:0000000000000013
#026380:00230000
#026320:0000001300000000
#026350:00000023
#0263b0:0000000000000013
#027380:00230000
#0283a0:14000024
#028370:0000005400000000
#028320:0000000000000013
#029350:00230000
#0293b0:0000001300000000
#029380:00000023
#029320:0000000000000014
#030360:0054000000000000
#030320:0000002400000000
#0323b0:13
#032380:00230000
#032320:0000000000000013
#033350:0023000000000000
#034350:0000000000130000
#034320:0000000000000023
#036320:13
#036350:00230000
#0363b0:0000000000000013
#037380:0023000000000000
#038380:0000000000130000
#0383b0:0000000000000023
#0403b0:13
#040380:00230000
#040320:0000000000000013
#041350:0023000000000000
#0423b0:0000000000130000
#042380:0000000000000023
#044320:13
#044350:00230000
#0443b0:0000000000000013
#045380:0023000000000000
#046320:0000000000130000
#046350:0000000000000023
#048380:13
#0483b0:0000000000530000
#049380:00230000
#049320:0000000014000034
#050350:00000000000000000054000000000000
#051320:00240000
#0513a0:0000000014000034
#052370:0024
#0523b0:0000000000001333
#053380:0000333300000000
#0533b0:0000000000003333
#054380:00000000000000000000005300000000
#0553b0:0023
#052321:0000000000001333
#053351:0000333300000000
#053321:0000000000003333
#054351:00000000000000000000005300000000
#055321:0023
