This file was generated by Ched 2.7.0.0.
#TITLE ""
#ARTIST ""
#DESIGNER ""
#DIFFICULTY 0
#PLAYLEVEL
#SONGID ""
#WAVE ""
#WAVEOFFSET 0
#JACKET ""
#REQUEST "ticks_per_beat 480"
#00002: 4
#BPM01: 135
#00008: 01
#TIL00: ""
#HISPEED 00
#MEASUREHS 00
#00017:00000000000000130000000000000000
#0001b:0000131313001300
#00012:0000000000130000
#00016:1400000000140014
#00716:1414
#00712:0024002400000014
#0071a:0000002400240014
#00812:0013130000000023
#0081b:2300001300001300
#00817:0000000013130000
#00816:23
#00810:41
#00917:0000130000130000
#00919:0000001300000000
#0091b:0000000013000013
#00912:0000000000130000
#00916:0000000000000013
#01019:0013000000000000
#0101b:00130013
#01016:0000001300001300
#01014:0013
#01012:2300000000130013
#01017:2300000000000013
#0111b:0013130000131300
#01112:0000131313000013
#01117:0000000000130000
#01116:0000001300000000
#01119:0000000000000013
#01217:1300000000000023
#01219:0013000000000000
#0121b:00132313
#01216:0013
#01214:0000000000130000
#01212:2300130000001313
#01215:0000001300000000
#01218:00000000000000130000000000000000
#01317:00130000
#01312:00130000
#01315:0000000000000013
#01318:0000000000000013
#0131b:0000002300000000
#01316:0000002300000000
#0141b:1300000013130013
#01418:00001300000000130000001300000000
#01415:00000013000013000000000013000000
#01412:1300130013000013
#03319:0000000000000013
#03314:0000000000000013
#0331b:13130000
#03316:13000000130000000024000014000000
#03312:0000001300240000
#03317:0000001300000000
#0331a:0024
#0341b:0000000013130000
#03416:1313000013130000
#03412:00000013
#03417:0000131300001300
#03512:0013000000130000
#03516:1400001414142400
#0351b:00131323
#03518:0000000000000013
#03515:00000000000000000000000000000013
#05914:1400002400000000
#05918:0014
#05912:0024000000000024
#0591a:0000002400240024
#06016:1414
#06012:0024002400000024
#0601a:0000002400240024
#06213:1616
#0621b:0000002300000012
#06217:00160016
#06212:0023000000230000
#06313:0012000000000000
#0631a:0000001200000000
#06314:0000000000120000
#06319:0000000000000012
#06415:0012000000000000
#06418:0000001200000000
#06416:0000000000120000
#0011b:0013001300230013
#00116:00000000140000000000000000130000
#00112:0000130000230000
#00118:00000000000000130000000000000000
#00115:0013
#01512:0013000013000000
#0151b:0013000013000000
#01515:13130000
#01518:13130000
#0241c:1200000000000012
#0241a:0012000000001200
#02418:00120000
#02416:0000001200000000
#02414:0012
#02412:1200000000000012
#0241f:11
#02512:0012
#0251c:0012
#0251a:0000001200001200
#02518:0000120000000012
#02514:12
#02516:0012000000000000
#02616:12120012
#0261c:12000012
#02618:0000001200000000
#02612:0000001200000000
#02712:12000012
#02718:12120000
#02714:0000001200120000
#0271a:0000001200000000
#0271c:00000012
#02812:12000012
#02814:0012000012000000
#02816:0000001200120000
#0281c:1212
#0281a:0012000000000012
#02818:00120012
#0291c:1200001200000000
#02912:1200001200001200
#02914:00120000
#02918:00000012
#0301c:1200001200000000
#03012:0000001200000000
#03017:0000000000120000
#03016:12
#03015:0012000000000000
#03019:00120000
#0321b:1300001300001300
#03217:0013000000000013
#03216:23000000130000130000000000000000
#03212:0013000000000013
#0321f:21
#03210:00000041
#0411b:1300130000000013
#04116:13000000130000000024000014001300
#04112:0000001300240000
#04117:0013001300000000
#0411a:0024
#04212:0000000013130000
#04217:1300000000130000
#0421b:00000013
#04216:00000013
#04210:41
#0401b:2300131300000000
#04016:13000013
#04012:0013000000000013
#04018:00000000000000130000000000000000
#04017:0013000000000013
#0431b:13002323
#04317:0000001300000000
#04315:00000000000000000000000000000013
#04318:0000000000000013
#04316:0000000024242400
#04312:0000000000230000
#03918:00000000000000000000000000000013
#0391b:0013000000130000
#03916:1400001414142400
#03912:00131323
#03915:0000000000000013
#0481b:13001313
#04818:0013001300000000
#04816:00130000
#04815:00130000000000130000000000000000
#04812:00000013001300000000130000001300
#04817:0000000000130000
#04912:00001300000000000000001300000000
#0491b:00000000000013001300000000333333
#04915:00000000000000000013000000000000
#04918:0000000000131300
#05016:0000000000130000
#0501b:00000013001300000000130000001300
#05012:13001313
#05015:0013001300000000
#05017:00130000
#05018:00130000000000130000000000000000
#05010:41
#0511b:00001300000000000000001300000000
#05112:0000001313001313
#05118:00000000000000000013000000000000
#05115:0000000000130000
#05117:00000000000000000000000000130000
#0521c:12001212
#05218:0012121200000000
#05216:00120000000000120000000000000000
#05212:00000012001200000000120000001200
#05217:0000000000120000
#05312:0012000000130000
#0531c:0000001200000000
#0531b:00001313
#05318:00000000000000000013000000130000
#05315:00000000000000000000001300001300
#05612:00000000000000000000130000000013
#0561b:0000131300131300
#05618:00000000000000130013000000001300
#05615:00000000000000001300000000130000
#05712:0000130000230000
#0571b:1300130000230000
#05718:00001300000013002300000000130013
#05715:00000000000000130000000013001300
#00418:00000000000000130000000000000000
#0041b:0000131300001300
#00415:0013
#00412:0000000000130000
#00417:0000000000130013
#00416:00000013
#0051b:0013000000230000
#00516:0000140000240000
#00512:00000000130013000000000000140000
#00515:00000000000000130000000000000000
#00518:0013
#05412:12001212
#05416:0012121200000000
#05418:00120000000000120000000000000000
#0541c:00000012001200000000120000001200
#05417:0000000000120000
#05512:0000001213001300
#05515:00000000000000000013000000130000
#0551b:0000000000130013
#05518:00000000000000000000001300000013
#0551c:0012000000000000
#06116:14141414
#0611b:0000000000000023
#06112:0024000000240000
#0611a:0000002400000000
#05812:1300131300130024
#0581b:0000000000130000
#05815:00000000000000130013000013000000
#05818:0000000013001324
#00216:00000000000000130000140000001400
#00212:0000131313001300
#0021b:0000000000130000
#00312:0013001300230000
#00316:00140000
#0031b:0000130000230000
#00315:00000000000000130000000000000000
#00318:0013
#00317:00000000000000000000000000130000
#00615:00000000000000130000000000000000
#00612:0000131300001324
#00618:0013
#0061b:0000000000130000
#00616:0000000000130000
#00617:00000013
#0061a:0000000000000024
#0161b:0013130000000023
#01612:2300001300001300
#01616:0000000013130000
#01617:23
#01610:41
#01716:0000130000130000
#01714:0000001300000000
#01712:0000000013000013
#0171b:0000000000130000
#01717:0000000000000013
#01814:0013000000000000
#01812:00130013
#01817:0000001300001300
#01819:0013
#0181b:2300000000130013
#01816:2300000000000013
#01912:0013130000131300
#0191b:0000131313000013
#01916:0000000000130000
#01917:0000001300000000
#01914:0000000000000013
#02016:1300000000000023
#02014:0013000000000000
#02012:00132313
#02017:0013
#02019:0000000000130000
#0201b:2300130000001313
#02018:0000001300000000
#02015:00000000000000130000000000000000
#02116:00130000
#0211b:00130000
#02118:0000000000000013
#02115:0000000000000013
#02112:0000002300000000
#02117:0000002300000000
#02212:1300000013130013
#02215:00001300000000130000001300000000
#02218:00000013000013000000000013000000
#0221b:1300130013000013
#0231b:0013000013000000
#02312:0013000013000000
#02318:13130000
#02315:13130000
#02310:41
#03714:0000000000000013
#03719:0000000000000013
#03712:13132400
#03717:13130000
#0371b:0000001300000000
#03716:00000000000013000024000014000000
#0371a:0000000000240000
#03812:0000000013130000
#03817:1313000013130000
#0381b:00000013
#03816:0000131300001300
#03612:1300001300001300
#03617:23000000130000130000000000000000
#0361b:0013000000000013
#03616:0013000000000013
#0461b:0000000013130000
#04616:1300000000130000
#04612:00000013
#04617:00000013
#04412:2300131300000000
#04415:00000000000000130000000000000000
#0441b:0013000000000013
#04417:13000013
#04416:0013000000000013
#04517:1300130000000013
#04512:1300130024000013
#0451b:0000001300000000
#04516:00001300000013000024000014000000
#0451a:0000000000240000
#04712:13002323
#04716:0000001324242424
#0471b:0000000000230023
#03112:0000242400000023
#03117:0000000000000023
#0311a:0000242400000000
#0065a:0000000000000064
#00652:0000000000000014
#00752:0014006400140000
#00756:2424
#0075a:0014001400140000
#00952:0000000000130000
#00957:0000000000130000
#0135b:0013006300000000
#01356:0013006300000000
#01357:0000000000130000
#01352:0000000000130000
#01157:0000000000230000
#01156:0000002300000000
#01152:00006333
#0115b:00630043
#03456:1300000013630000
#0345b:0000000000630043
#03452:00000023
#03457:00130023
#03552:0000000000330000
#0355b:00134343
#03556:14
#05852:0000000000000014
#05858:0000000000000064
#0585b:0000000000130000
#05958:0044000024000000
#05952:0044000000000014
#05954:2400006400340000
#0595a:0000001400340064
#06056:2424
#06052:0044006400340014
#0605a:0044001400340064
#06253:2626
#0625b:0043006300430000
#06257:00260026
#06252:0053003300530000
#0615b:0000000000000063
#06156:24242424
#0615a:0044006400440000
#06152:0054003400540034
#03152:12
#0315c:12
#0325b:63
#03257:0023000000000053
#03252:0000000000000053
#03256:13
#0335b:23
#03356:23
#03352:0000000000140000
#04252:0000000000530000
#04257:1300130000530000
#0425b:00000023
#04256:00000023
#04056:63000013
#04052:0023000000000053
#0405b:13130000
#04156:23
#04152:0000000000140000
#0415b:00130000
#05652:0000000000130000
#01257:0000000000000053
#01252:0000000000000053
#0435b:13134343
#04352:0000000000330000
#00152:0000000000530000
#00156:00000000000000000000000000230000
#00357:00000000000000000000000000230000
#0035b:0000000000630000
#00552:00000000000000000000000000240000
#00556:0000000000540000
#01052:0000000000000053
#01558:00530013
#0155b:0023
#01555:00630013
#01552:0023
#01756:0000000000130000
#0175b:0000000000130000
#01952:00530033
#0195b:00005343
#01956:0000000000230000
#01957:0000002300000000
#0185b:0000000000000063
#0205b:0000000000000063
#02056:0000000000000063
#02355:00630013
#02352:0023
#02358:00530013
#0235b:0023
#02152:0013005300000000
#02157:0013005300000000
#0215b:0000000000130000
#02156:0000000000130000
#03852:0000000000530033
#03857:1300000013530000
#0385b:00000023
#03856:00130023
#0395b:0000000000430000
#03952:00133333
#03956:14
#0365b:0000000000000063
#03656:0023000000000063
#03652:53
#03657:13
#03752:23
#03757:23
#0375a:0000000000140000
#0465b:0000000000630000
#04656:1300130000630000
#04652:00000023
#04657:00000023
#0445b:0023000000000063
#04457:53000013
#04452:13130000
#04557:23
#04552:00130000
#0455a:0000000000140000
#04752:13133333
#0475b:0000000000430043
#0575b:0000000000130000
#05752:0000000000130000
#04958:00000053
#000320:13
#000370:00230000
#000320:0000000000000013
#001370:0023000000000000
#001320:0000000000130000
#001360:00000000000000000000000000530000
#002320:23
#0023b1:13
#002361:00230000
#0023b1:0000000000000013
#003361:0023000000000000
#0033b1:0000000000130000
#003371:00000000000000000000000000530000
#0043b1:23
#004320:13
#004370:00230000
#004320:0000000000000013
#005370:0023000000000000
#005360:0000000000140000
#005320:00000000000000000000000000540000
#006360:24
#0063b1:13
#006361:00230000
#0063a1:0000000000000014
#007361:54
#0073a1:0024000000000000
#007321:0000001400240000
#007361:0054
#0083b1:13
#008371:0053230000000000
#008361:0000001300000000
#008321:0000000053230000
#008321:0000000000000013
#0093b1:0023000000000000
#0083b0:0000000000000013
#009320:0023000000000000
#009320:00130000
#009360:0023
#010320:13
#010360:0053230000000000
#0103b0:0000001300000000
#010370:0000000053230000
#010320:0000000000000013
#011360:0023000000000000
#0113b0:00132300
#011360:0000005300000000
#011321:00001323
#011371:0000000000530000
#012321:0000000000000013
#013361:0023000000000000
#012370:0000000000000013
#0133b0:0023000000000000
#013360:0000001300000000
#013320:0000000000230000
#0133b1:0000001300000000
#013371:0000000000230000
#015381:00130023
#0153b1:0053
#015350:00130023
#015320:0053
#016320:13
#016360:0053230000000000
#016370:0000001300000000
#0163b0:0000000053230000
#0163b0:0000000000000013
#017320:0023000000000000
#016321:0000000000000013
#0173b1:0023000000000000
#0173b1:00130000
#017371:0023
#0183b1:13
#018371:0053230000000000
#018321:0000001300000000
#018361:0000000053230000
#0183b1:0000000000000013
#019371:0023000000000000
#019321:00132300
#019371:0000005300000000
#0193b0:00001323
#019360:0000000000530000
#0203b0:0000000000000013
#021370:0023000000000000
#020361:0000000000000013
#021321:0023000000000000
#021371:0000001300000000
#0213b1:0000000000230000
#021320:0000001300000000
#021360:0000000000230000
#023350:00130023
#023320:0053
#023381:00130023
#0233b1:0053
#030321:00000012
#031321:22
#0303c0:00000012
#0313c0:22
#0323b0:13230000
#032370:0053000000000000
#0323b0:0013
#032370:0000000000230000
#032321:0000000000130000
#032361:00000023
#032321:0000000000000013
#033361:53
#033321:0023000000000000
#032370:0000000000000013
#0333b0:53
#033370:0023000000000000
#0343b0:1323000000000000
#034320:0000132300000000
#0343b0:0000000000130023
#034370:00000053
#034361:0000000000130023
#034321:00000053
#0353b1:1323000000000000
#035321:0000132300000000
#036321:13230000
#036361:0053000000000000
#036321:0013
#036361:0000000000230000
#0363b0:0000000000130000
#036370:00000023
#0363b0:0000000000000013
#037370:53
#0373b0:0023000000000000
#036361:0000000000000013
#037321:53
#037361:0023000000000000
#038321:1323000000000000
#0383b1:0000132300000000
#038321:0000000000130023
#038361:00000053
#038370:0000000000130023
#0383b0:00000053
#039320:1323000000000000
#0393b0:0000132300000000
#040360:13230000
#040320:0053000000000000
#040350:0013
#040320:0000000000230000
#040381:0000000000130000
#0403b1:00000023
#040321:0000000000000013
#041361:53
#041321:0023000000000000
#042321:13
#042361:0023000000000000
#0423b0:0013000000000000
#042370:00230000
#042321:00130000
#042361:0000002300000000
#0423b0:0000001300000000
#042370:0023
#042320:0000000000130023
#042360:00000053
#042371:0000000000130023
#0423b1:00000053
#043361:13
#043321:0023000000000000
#043370:0013000000000000
#0433b0:00230000
#043361:00130000
#043321:0000002300000000
#044371:13230000
#0443b1:0053000000000000
#044381:0013
#0443b1:0000000000230000
#044350:0000000000130000
#044320:00000023
#0443b0:0000000000000013
#045370:53
#0453b0:0023000000000000
#0463b0:13
#046370:0023000000000000
#046321:0013000000000000
#046361:00230000
#0463b0:00130000
#046370:0000002300000000
#046321:0000001300000000
#046361:0023
#0463b1:0000000000130023
#046371:00000053
#046360:0000000000130023
#046320:00000053
#047370:13
#0473b0:0023000000000000
#047361:0013000000000000
#047321:00230000
#047370:00130000
#0473b0:0000002300000000
#048370:0000000000000013
#049370:0023000000000000
#049320:00130000
#049360:0000002300000000
#049380:00000013
#0493b0:00000000000000000000000000333333
#0503b0:23
#050360:0000000000000013
#051360:0023000000000000
#0513b0:00130000
#051370:0000002300000000
#052370:0000000000000012
#053370:0022000000000000
#053320:00120000
#053370:0000002200000000
#054370:0000000000000012
#055370:0022000000000000
#0553c0:00120000
#055370:0000002200000000
#056320:13
#056370:00230000
#0583b0:13
#058360:00230000
#058380:0000000000000014
#059340:54
#059380:0024000000000000
#059340:0000001400240000
#059380:0054
#0593a0:0000000000000014
#060360:54
#0603a0:0024000000000000
#060320:0000001400240000
#060360:0054
#0603a0:0000000000000014
#061360:54
#0613a0:0024000000000000
#061321:0014002400000000
#061361:00540000
#0613a0:0000001400240000
#061360:0054
#061321:0000000000140024
#061361:00000054
#0613b0:0000000000000013
#062330:56
#0623b0:0023000000000000
#062321:0013002300000000
#062371:00560000
#0623b0:0000001300230000
#062330:0056
#062321:0000000000130023
#062371:00000056
