This file was generated by Ched 2.7.0.0.
#TITLE ""
#ARTIST ""
#DESIGNER ""
#DIFFICULTY 0
#PLAYLEVEL
#SONGID ""
#WAVE ""
#WAVEOFFSET 0
#JACKET ""
#REQUEST "ticks_per_beat 480"
#00002: 4
#BPM01: 135
#00008: 01
#TIL00: ""
#HISPEED 00
#MEASUREHS 00
#03218:0014
#03214:00140000
#03212:00000014
#0321a:24
#0321f:21
#03210:00000041
#02914:0014
#03318:14
#03314:00140000
#0331a:0014
#00812:0014
#0081a:24
#00810:41
#01012:14
#01018:0014
#01214:0014
#0121a:14
#01112:14
#01118:0014
#01114:00000014
#01314:0014
#0131a:14
#0041a:14
#00414:0014
#0051a:14
#00514:0014
#00618:14
#01418:1414
#01412:00140014
#0361a:14140000
#03614:00001414
#0371a:14
#03712:00140000
#03718:0014
#03812:1414
#03818:00140014
#03914:1414
#0391a:00140014
#04014:0014
#04018:00140000
#0401a:00000014
#04012:24
#04114:14
#04118:00140000
#04112:0014
#04412:14140000
#04418:00001414
#04512:14
#0451a:00140000
#04514:0014
#0461a:1414
#04614:00140014
#04718:1414
#04712:00140014
#05614:14
#05618:0014
#05712:14
#0571a:0014
#05814:14
#0161a:0014
#01612:24
#01610:41
#0181a:14
#01814:0014
#02018:0014
#02012:14
#0191a:14
#01914:0014
#01918:00000014
#02118:0014
#02112:14
#02214:1414
#0221a:00140014
#02512:0014
#0271a:0014
#0481a:14
#04818:0014
#04912:0000000000000014
#05014:00000000000000140000000000000000
#05010:41
#0511a:0000000000000014
#05218:00000000001400000000000000000000
#05418:00000000000000000000001400000000
#0531a:0000000000000014
#0241f:11
#00018:0000000000000034
#00214:0000000000000034
#02310:41
#04210:41
#0325a:14
#04052:14
#03152:0000001400000000
#04858:0024
#0485a:64
#04952:0000000000000054
#05054:00000000000000240000000000000000
#0515a:0000000000000064
#05258:00000000002400000000000000000000
#0555a:0014
#05458:00000000000000000000002400000000
#0535a:0000000000000064
#0435a:00000014
#03552:00000014
#0003a0:14
#000380:0000000000000034
#001380:0000000000240000
#002320:14
#002340:0000000000000034
#003340:0000000000240000
#006320:0000000014000034
#007320:0034003400240000
#009380:1424
#0093a0:00340000
#015380:14340000
#0153a0:00000024
#017340:1424
#017320:00340000
#023340:14340000
#023320:00000024
#024380:14
#0253a0:24
#026320:14
#027340:24
#0283a0:14
#029380:24
#030340:14
#030320:00000034
#031320:3400342400000000
#034340:14240000
#034380:00001424
#035340:14340000
#035320:00003424
#042380:14240000
#042340:00001424
#043380:14340000
#0433a0:00003424
#0483a0:14
#048380:0054
#0493a0:24
#049320:0000000014000034
#050340:00000000000000540000000000000000
#051320:24
#0513a0:0000000014000034
#052380:00000000005400000000000000000000
#0523a0:0000000000003434
#053380:0000343400000000
#0533a0:0000000000003434
#054380:00000000000000000000005400000000
#0553a0:0024
#0583a0:0000000014000034
#0593a0:0034003400340000
#059380:0000000000000034
#060380:0034003400240000
#060320:0000000000000014
#061320:0034003400340000
#061340:0000000000000034
#062340:0034003400240000
#062380:0000000000000014
#063380:0034003400340034
#064380:0034003400240000
