This file was generated by Ched 2.6.4.0.
#TITLE ""
#ARTIST ""
#DESIGNER ""
#DIFFICULTY 0
#PLAYLEVEL
#SONGID ""
#WAVE ""
#WAVEOFFSET 0
#JACKET ""
#REQUEST "ticks_per_beat 480"
#00002: 4
#BPM01: 173
#00008: 01
#TIL00: ""
#HISPEED 00
#MEASUREHS 00
#00019:14
#00213:14
#0081a:14
#00810:41
#00914:14
#0101a:14
#01114:14
#01218:14
#01312:14
#01418:14
#01512:14
#0161a:14
#01712:14
#02012:14
#02010:41
#02118:14
#00119:14
#00313:14
#02214:14
#0231a:14
#02412:14
#0251a:14
#0281a:14
#02914:14
#03018:14
#03112:14
#03212:0016
#03218:26
#03210:41
#03318:16
#03312:0016
#03618:0016
#03612:16
#03712:16
#03718:0016
#04212:16
#04218:0016
#04312:16
#04318:0016
#0491a:14
#05014:14
#05118:14
#05212:14
#0531a:14
#0571a:14
#05814:14
#0591a:14
#06012:14
#06118:14
#06212:14
#06318:14
#07212:2616
#0721f:21
#07412:16
#07418:0016
#07512:1616
#07618:1616
#07818:16
#07812:0016
#07918:1616
#08012:2616
#08118:16
#08112:0016
#08418:1616
#08512:16
#08518:0016
#09318:14
#09314:0014
#04012:0016
#04018:26
#04412:16
#04418:0016
#08218:1616
#08318:16
#08312:0016
#09418:14
#09414:0014
#09518:14
#0641f:11
#0701a:34
#06919:34
#06612:34
#06513:34
#07310:41
#08910:41
#04810:41
#004390:14
#005390:24
#006330:14
#007330:24
#018380:14
#019380:24
#026340:14
#027340:24
#034380:1636
#035380:26
#038320:1636
#039320:26
#041380:1626
#045320:1626
#046380:1626
#047320:16
#048320:26
#054340:14
#055340:34
#056340:24
#064340:14
#065330:34
#066320:34
#067320:24
#068380:14
#069390:34
#0703a0:34
#0713a0:24
#073380:1626
#077320:1626
#086320:1636
#087320:26
#0893a0:14
#0903a0:24
#091320:14
#092320:24
#096340:1400000000000034
#097340:0034
#102320:0000002400000000
