This file was generated by Ched 2.6.4.0.
#TITLE ""
#ARTIST ""
#DESIGNER ""
#DIFFICULTY 0
#PLAYLEVEL
#SONGID ""
#WAVE ""
#WAVEOFFSET 0
#JACKET ""
#REQUEST "ticks_per_beat 480"
#00002: 4
#BPM01: 173
#00008: 01
#TIL00: ""
#HISPEED 00
#MEASUREHS 00
#0641f:11
#06418:0013
#0641b:13
#06412:0013
#06415:23
#04815:1300130000130000
#04818:0013000000001300
#0481b:0000000000000013
#04812:0000001300000000
#04810:41
#06318:13000013
#06315:0013
#06312:00130000
#0401b:0013
#04016:0013
#04017:00130013
#04012:26130013
#04018:26
#03212:2613
#03217:0013
#03216:00130013
#0321b:00130013
#03218:26
#03210:41
#09618:0000000026162616
#09619:2414241400000000
#09612:0000000016261626
#09613:1424142400000000
#04418:0013
#04412:13000013
#0441b:00000013
#0441a:00130000
#04413:00130000
#04415:0023
#03012:13
#07118:00000013
#07115:0013
#0711a:2424000000000000
#07112:2424000000000000
#07412:1300001313001300
#07415:0000000000000013
#0741b:0013130000131300
#07418:0000000000000013
#07416:14141400
#08215:0000000000000013
#08218:0000000000000013
#0821b:1300001313002300
#08212:0013130000132300
#08216:24242400
#09316:1400140024140000
#09312:24000000000000140000000014000000
#09314:0014000000000000
#0931a:0000241400002400
#06716:1313
#06717:00130000
#06719:00000013
#06714:00000013
#0671b:0013
#0731b:0013
#07316:0013
#07312:00230000
#07317:00230000
#07310:41
#08112:0013
#08117:0013
#0811b:00230000
#08116:00230000
#0781a:0000001400000014
#07816:14000000000014000014000000001400
#07812:14140014
#0251b:0000001300000000
#02518:0013000000001300
#02515:0000130000130013
#02412:2300130000000013
#0241b:0013000000001300
#02418:0000001300130000
#02415:0013
#01712:0000001300000013
#0171b:00000013
#01718:00130000
#01715:0013000000000000
#0161b:2300131300000013
#01615:0000131300001300
#01618:0000000000130000
#01918:2313000000000000
#01915:0000001300000013
#01912:0013000000000000
#0191b:00000013
#02212:0013000000001313
#0221b:1300000000001313
#02215:13131300
#02218:0000001300000000
#01512:2400001300130000
#0151b:0013000000000000
#01515:0000000000000013
#01518:00000013
#0151a:0024
#01516:00240000
#01412:1300001313001300
#0141b:0000130000130000
#01418:00000000000000130000000000000000
#01415:0013000000000000
#01118:1300001313001300
#01115:0000130000130000
#01112:00000000000000130000000000000000
#0111b:0013000000000000
#0121b:1300130000130000
#01212:0000001313001300
#01218:00000000000000130000000000000000
#01215:0013000000000000
#03118:1300000000131300
#0311b:00131300
#03112:00131300
#03115:00000000000000000000001300000000
#02618:0000001300130000
#0261b:2313230000000013
#02612:2313230000000000
#02615:00002323
#06918:0013000000000013
#06915:0013000000000000
#0691b:13
#06912:13000013
#06818:0013
#0681b:13
#06815:0013
#06812:13
#0661b:13
#06618:0013
#06614:1300000000000013
#06612:00130013
#06615:0013
#0651b:13
#06518:0013
#06516:00000013
#06515:00130000
#06512:13
#06119:0000000000000013
#0611b:13
#06117:00000013
#0621b:1300000000131300
#06218:0000131300000000
#06018:0013
#06012:16
#0601b:13
#05915:13000013
#05918:0013
#0591b:00130000
#05812:00001313
#05815:13130000
#05715:00130013
#05712:13
#05612:2413
#05618:16
#05212:1300000000131313
#0521b:1300000000000013
#05218:00130013
#05215:0013001300000000
#0531b:0013131300000000
#05315:13130000
#05318:00001313
#05312:0000001300130000
#0941a:24000000000000140000000000140014
#09412:0000241400002414
#09418:0014000000000000
#09416:0000140024140000
#09116:00240014
#09118:0000000000130000
#09112:1313001300002400
#0911b:00000000000000130000000000000000
#09115:0013
#09215:0000000023130000
#09218:0000231300000000
#0921b:0000000000002313
#09212:2313000000000000
#08814:00000000000000000000001400000000
#08818:0000000000142600
#0901a:00240014
#0901b:0000000000130000
#09015:0000001300000000
#09018:00000000000000130000000000000000
#09012:1313000013000000
#09016:00000024
#08916:00240014
#0891b:1300000000130000
#08912:2400001300002400
#08918:00000000000000130000000000000000
#08915:0013
#08919:0013000000000000
#08910:41
#10118:00000013
#10115:00000013
#10218:14
#10214:14
#08612:2400240000141400
#08618:0000001424000000
#08614:00000000000000140000000000000000
#0861a:0000000000142400
#07616:00130013
#07612:0013
#07617:0013
#0761b:00130000
#07717:13
#07716:00130000
#0771b:00130000
#07714:00000013
#07719:00000013
#0411b:00000013
#04117:00130000
#04112:00130000
#04116:0013
#04212:1414
#0421a:00140014
#04215:0000131300001313
#04218:0013000013130000
#03312:00000013
#03316:00130000
#0331b:00130000
#03317:0013
#0371b:00130000
#03717:0013
#03712:13
#03715:00000013
#03718:0000000000000013
#03612:0013
#03617:0013
#0361b:00130013
#03616:00130000
#0791a:00001400000000140000000014000000
#07912:00000014000014000000000014000000
#07916:00242400
#0551a:2414
#05516:00000014
#05512:00240000
#05515:000000000034000000000000
#05514:003400
#05517:003400000000
#05518:003400000000000000000000
#05118:0013130000000000
#05112:13
#05115:0000001300000000
#0511b:0000001300000000
#0501b:0000000013000013
#05015:0000000000131313
#05012:0000001300000000
#05018:0013131300000000
#0491b:0000000000000013
#04915:0000000000131313
#04912:0000001300000000
#04918:0013131300000000
#02915:0000130000130013
#02912:0000001300000000
#02918:0013000000001300
#0281b:0000001300000013
#02818:00131300
#02812:00000013
#02815:0000000000130000
#02718:0000001300000013
#02715:2313000000000000
#0271b:0013000000000000
#02712:00000013
#02318:0000000000000013
#02315:00000013
#0231b:0000000000130000
#0211b:0000001300000000
#02118:00130013
#02115:0013000000000000
#01812:0000000000000013
#01818:2300230000130000
#01815:0013000023002300
#0181b:0000001300000000
#01315:1300001313001300
#01318:0000130000130000
#0131b:00000000000000130000000000000000
#01312:0013000000000000
#0101b:1300001313001300
#01015:00000000000000130000000000000000
#01012:0000130000130000
#01018:0013000000000000
#00918:1300001313001300
#00915:0000130000130000
#00912:00000000000000130000000000000000
#0091b:0013000000000000
#0081b:2300001313001300
#00812:2300130000130000
#00815:00000000000000130000000000000000
#00818:0013000000000000
#00810:41
#00712:1313
#00717:0000001300000000
#0071b:13130000
#00716:0013000000000000
#00714:00330033000000000000000000000000
#00719:00000000003300330000000000000000
#00612:00130013
#00615:1313
#0061b:13131313
#0001c:1212
#00019:00120012
#0431a:14
#04312:14131300
#0431b:00130013
#04318:0000001300000013
#04315:0000000000130000
#08412:14000014
#0841a:00130014
#08413:00130000
#08414:0024
#08418:0024
#0831a:00001414
#08316:0000000000140014
#08312:00131400
#0831b:00130000
#08012:26130013
#08017:00130013
#0801b:0000000023000013
#08016:0000000023000013
#08018:26
#0721b:00130013
#07216:00130013
#07212:2600000023000013
#07217:0000000023000013
#0721f:21
#07218:26
#03412:00140014
#03418:0000131300001313
#0341a:1414
#03415:0013000013130000
#08714:0000000000001212
#0871a:2400121200000000
#08712:24
#0751b:00130000
#07516:00130000
#07519:0013
#07514:0013
#07512:00000013
#07517:00000013
#08512:00240014
#08516:0000000000000014
#0851a:00240000
#0351a:14
#03512:14000013
#0351b:00130000
#03516:00130000
#03519:0013
#03514:0013
#03517:00000013
#03812:13
#03815:00130013
#03818:0000001300000013
#0381b:0000000000130000
#03912:1300001313000000
#0391b:0013130000000000
#03915:00000013000000000000000000000000
#03918:00000000000000130000000000000000
#03916:00000014
#0451b:0000000000130000
#04518:00000013
#04515:0000000000000013
#0451a:0000242400000000
#04512:0000242400000000
#07016:0000000000000014
#07012:0000131300001400
#0701a:0000000000140000
#07018:0000131300000000
#0701b:13
#07015:13
#00314:00120012
#00316:0012
#00312:12
#00215:00120012
#00212:0012
#0011a:00120012
#00118:0012
#0011c:12
#00412:13131313
#00418:00130013
#0041b:0013
#02012:0000001300000013
#02015:00131300
#0201b:13000013
#02018:0013000000130000
#02010:41
#00519:00130013
#00517:0013
#0051b:13
#00512:13131313
#04712:0000000000000013
#04717:0000001300000000
#04713:00000013
#04714:0000000000130000
#0461b:1300000000001313
#04612:1300131300000000
#05412:0024
#0541a:24
#0951a:00000024000000000024000000000000
#09512:2400002400002400
#09718:0026
#09712:0026
#07552:33000063
#0755b:43
#07557:00000063
#08352:3364
#0835b:43
#0835a:00000054
#08356:0000000000240024
#0195b:0000001300000000
#01958:0053000000000000
#01955:0000006300000000
#01952:0013000000000000
#0695b:63430000
#06952:53330000
#06958:0023000000000000
#06955:0023000000000000
#0415b:43000053
#04156:4323
#04152:00630000
#0075b:00534300
#00752:6333
#00757:0000002300000000
#00756:0023000000000000
#0845a:44000024
#08454:0054
#08458:0064
#08452:34000024
#08157:3323
#08152:3323
#0815b:00530000
#08156:00530000
#07356:4323
#0735b:4323
#07352:00630000
#07357:00630000
#0445b:43000023
#04455:0053
#04458:0053
#04452:33000023
#03352:33000063
#03357:3323
#0335b:00530000
#07656:13000023
#0765b:13
#07652:0063
#03656:13
#0365b:13000023
#03657:0063
#08252:00000053
#0825b:00000063
#08255:0000000000000023
#08258:0000000000000023
#08858:00000016
#09758:0066
#09752:0056
#0855a:00140000
#08552:00140000
#0805b:0000000053000023
#08056:0000000053000023
#08052:36000063
#08058:46
#08057:00000063
#07252:3600000063000023
#07257:0000000063000023
#07258:46
#0725b:00000053
#07256:00000053
#0455a:0000001400000000
#04552:0000001400000000
#04058:16
#04052:16000023
#0405b:0053
#04056:0053
#04057:00000023
#03258:16
#03252:1663
#03257:0063
#03256:00000023
#0325b:00000023
#07452:00000053
#07455:0000000000000023
#0745b:00000063
#07458:0000000000000023
#09352:00000054
#06756:63
#0785a:0000005400000000
#07856:64000000000000000024000000005400
#0255b:0000005300000000
#02452:0000000000000063
#01752:0000006300000000
#0165b:0000000000000053
#02252:0000000000000053
#0225b:0000000000000063
#06855:0053
#06852:63
#0665b:63
#06658:0063
#0655b:63
#06558:0063
#06458:0063
#0645b:53
#0615b:53
#06058:0063
#06052:66
#05658:56
#05355:23
#05358:0023
#0535b:0000005300000000
#05252:0000000000000063
#09156:00000054
#0905a:00000064
#08956:00000054
#10158:00000023
#10155:00000023
#10258:54
#10254:64
#07757:63
#07756:00530000
#0775b:00530000
#0375b:00530000
#03757:0023
#03752:63
#05152:23
#05155:0000005300000000
#0515b:0000005300000000
#05055:0000000000000053
#0505b:0023
#05058:0000006300000000
#0435b:00530053
#04358:0000002300000023
#04352:0063
#04355:0000000000230000
#03158:00000013
#03552:00000063
#03557:00000063
#04955:0000000000000053
#04958:0000006300000000
#02755:0063000000000000
#02758:0000005300000000
#0275b:0013000000000000
#02752:0000001300000000
#04757:0000002300000000
#0465b:6300000000000063
#04652:0000005300000000
#000320:13
#002320:23
#0023b1:13
#0043b1:23
#007321:13230000
#007341:00330033000000000000000000000000
#007361:0033000000000000
#0073b0:00132300
#007390:00000000003300330000000000000000
#007370:0000003300000000
#008320:00000013
#009350:23
#009350:00000013
#010320:23
#010320:00000013
#011350:23
#011350:00000013
#012320:23
#0123b0:00000013
#013380:23
#013380:00000013
#0143b0:23
#0143b0:00000013
#015380:23
#0163b0:0000000000000013
#017380:0023000000000000
#017320:0000001300000000
#017350:00000023
#019380:0013000000000000
#0193b0:0000002300000000
#019351:0000001300000000
#019321:00000023
#0203b1:0000000000000013
#0213b1:0023000000000000
#021321:0000001300002300
#022321:0000000000000013
#023351:00230000
#0223b0:0000000000000013
#023380:00230000
#024320:0000000000000013
#025350:0023000000000000
#0253b0:0000001300000000
#025380:0000000000230000
#027350:0013000000000000
#027320:0000002300000000
#027381:0000001300000000
#0273b1:00000023
#028321:13
#028351:00230000
#028321:0000000000000013
#029321:0023000000000000
#0293b1:0000001300230000
#030381:13
#0303b1:00230000
#030350:00130000
#030320:0023
#0303b1:0013
#030381:00000023
#030320:00000013
#031350:23
#032320:0013
#032360:00000053
#033320:23
#032371:0013
#0323b1:00000053
#033371:23
#0333b1:00130023
#033371:0053
#033320:00000013
#034350:23
#035320:00000013
#036360:23
#035371:00000013
#0363b1:23
#036371:0013
#0363b1:00000053
#037371:23
#037320:13
#037360:00230000
#0373b1:00130023
#037371:0053
#0383b1:13230000
#038321:0000001300230000
#0403b1:0013
#040371:00000053
#0413b1:23
#040360:0013
#040320:00000053
#041360:23
#041320:00130023
#041360:0053
#0413b1:00000013
#042381:23
#0433b1:00132300
#043381:0000005300000000
#043320:00001323
#043350:0000000000530000
#0433b1:00000013
#043381:0000000000000053
#0443b1:23
#044351:0013
#044321:00000053
#045351:23
#044380:0013
#0443b0:00000053
#045380:23
#0463b0:13
#046370:0000002300000000
#046321:0000001300000000
#046361:0000000000000023
#0463b0:0000000000000013
#047370:0000005300000000
#0483b0:23
#048380:0000001300230000
#048350:0000000000000013
#049350:0023000000000000
#049380:0000001300000000
#0493b0:0000000000230000
#049350:0000000000000013
#050320:0023000000000000
#050380:0000001300230000
#0503b0:0053
#050350:0000000000000013
#051320:53
#051350:0023000000000000
#051350:0000001300000000
#051320:00000023
#0513b1:0000001300000000
#051381:00000023
#0523b1:0000001300230000
#052321:0000000000000013
#053351:53
#053321:0023000000000000
#0533b1:0000001300230000
#053381:0053
#053321:00000013
#054321:23
#0543a0:143434240000
#054380:003400340034000000000000
#054321:000000143434
#054341:000000000000003400340034
#055321:24
#0553a0:14
#055380:003400000000000000000000
#055370:003400000000
#055360:00240000
#055321:00140000
#055341:003400
#055351:000000000034000000000000
#055361:0024
#056381:16
#0593a1:22
#060321:16
#063341:22
#060380:0013
#0613b0:33
#061380:00230000
#0643b1:13
#064381:0053
#0653b1:53
#065381:0053
#0663b1:53
#066381:0053
#0673b1:23
#067360:13
#067320:00230000
#068320:13
#068350:0053
#069320:53230000
#069350:0053000000000000
#0693b1:13230000
#069381:0053000000000000
#072321:0000000013000053
#072361:00000053
#073361:23
#072370:0000000013000053
#0723b0:00000053
#0733b0:23
#073370:00130023
#0733b0:0053
#073321:00130023
#073361:0053
#074321:00000013
#074351:0000000000000033
#075321:23
#0743b0:00000013
#074380:0000000000000033
#0753b0:23
#075320:00000013
#076360:23
#075371:00000013
#0763b1:23
#076321:0013
#076361:00000053
#077321:23
#077370:1323
#0773b0:00330000
#077361:00130000
#077321:0023
#078361:14
#0783a1:00240000
#0783a1:0000001400002400
#078361:00000000000000000054000000000000
#078361:0000000000000014
#079321:0024000000000000
#0803b1:0000000013000053
#080371:00000053
#081371:23
#080360:0000000013000053
#080320:00000053
#081320:23
#081360:00130023
#081320:0053
#0813b1:00130023
#081371:0053
#082321:00000013
#082351:0000000000000033
#083321:23
#0823b0:00000013
#082380:0000000000000033
#0833b0:23
#083320:00001424
#083360:0000000000540000
#0833a1:00000014
#083361:0000000000000054
#0843a1:24
#084341:0014
#084321:00000054
#085341:24
#084380:0014
#0843a0:00000054
#085380:24
#0863a0:14240000
#089360:00000014
#0903a0:24
#0903a0:00000014
#091360:24
#091360:00000014
#0923a0:24
#093320:00000014
#094360:24
#095320:14
#095360:00000024000000000000000000000000
#0953a1:00000014000000000000000000000000
#095361:0000002400000000
#095320:0000001400000000
#095360:00000000000000000024000000000000
#0953a1:00000000000000000014000000000000
#095361:00000024
#097381:0016
#101381:00000053
#102381:54
#1023c1:0000002200000000
#097320:0016
#101350:00000053
#102340:54
#102320:0000002200000000
