This file was generated by Ched 2.6.4.0.
#TITLE ""
#ARTIST ""
#DESIGNER ""
#DIFFICULTY 0
#PLAYLEVEL
#SONGID ""
#WAVE ""
#WAVEOFFSET 0
#JACKET ""
#REQUEST "ticks_per_beat 480"
#00002: 4
#BPM01: 173
#00008: 01
#TIL00: ""
#HISPEED 00
#MEASUREHS 00
#0071b:1313
#00719:00130000
#00712:1313
#00714:00130000
#00815:0013000000001300
#00818:0000130000130000
#0081b:2313
#00812:0000001300000000
#00810:41
#01612:0000130000000013
#01618:0000001300000000
#0161b:23
#01718:00000013
#0171b:00130000
#01715:0000001300000013
#01812:0013000000130000
#01815:0000001300000000
#01818:0000000023000013
#0181b:23230023
#02118:00130000
#02115:0000001300000013
#0211b:00000013
#02218:0000130000130000
#0221b:1313
#02212:0013001300000013
#02215:00000013
#03412:13
#03418:0013
#0341b:00000013
#03415:00130000
#0431b:00130000
#04318:0013
#04315:00000013
#04518:1300000000130000
#04515:13000013
#0451b:0000000000000013
#05812:13
#05815:00130000
#05818:0013
#0581b:00000013
#0591b:00130000
#05918:0013
#05915:00000013
#06012:13
#06318:00130000
#06312:0013
#06315:00000013
#03515:00130000
#03518:0013
#03512:00000013
#07418:13
#0741a:0013
#07415:00000013
#0741b:00000013
#07419:0000130000000033
#07412:13
#07414:0013
#07413:0000130000000033
#07718:00000013
#07712:00140000
#07717:00140000
#07918:0013
#07915:00000013
#0801a:24000014
#08015:24000014
#08012:0024
#08017:0024
#08518:00000013
#08515:0000000000000013
#08612:13000014
#0861a:00000014
#0861b:13
#08718:00130013
#08715:0000001300000013
#08712:24
#0871a:24
#03312:00130000
#03318:00130000
#08115:00140000
#0811a:00140000
#08112:0014
#08117:0014
#00014:12
#00016:00120000
#00018:0012
#0001a:00000012
#0011a:12
#00118:00120000
#00116:0012
#00114:00000012
#00214:12
#00216:00120000
#00218:0012
#0021a:00000012
#0031a:12
#00318:00120000
#00316:0012
#00314:00000012
#00415:00130000
#00418:0013
#0041b:00000013
#00412:13
#00518:00130000
#00515:0013
#00512:00000013
#0051b:13
#00615:00130000
#00618:0013
#0061b:00000013
#00612:13
#00918:1313
#00912:0013000000001300
#0091b:00130000
#00915:0000001300130000
#0101b:13
#01012:0013000013000000
#01018:0000130000130000
#01015:0000001300001300
#01118:1300000000130000
#01115:0013000013000000
#0111b:00130013
#01112:0000001300000000
#01212:1313
#01218:0013000000001300
#01215:0000130000130000
#0121b:0000001300000000
#01315:1313
#0131b:0013000000001300
#01312:00130000
#01318:0000001300130000
#01412:13
#0141b:0013000013000000
#01415:0000130000130000
#01418:0000001300001300
#01515:0000000000130013
#01518:00260013
#01512:2623
#0151b:0023
#01918:0013000000000013
#01915:23000013
#02012:1300000000000013
#02018:0013000013001300
#02015:0000130000130000
#0201b:0000001300000000
#02010:41
#02315:00130000000000000000000013000000
#0231b:0013
#02312:0013
#02318:0000000000130013
#0241b:0000130000000013
#02415:0000001300130000
#02418:0013
#02412:23000013
#02515:00000013
#02512:00130000
#02518:0000001300000000
#02615:0013000023000013
#0261b:0000000000130000
#02618:2300001300000000
#02612:00230023
#02915:00130013
#02918:0000001300000013
#02912:0000000000130000
#02715:0013000000000013
#02718:23000013
#02815:00001313
#02818:1300000000130000
#02812:0000001300000000
#0281b:0000000000000013
#03015:13
#0301b:13
#03018:0013
#03012:0013
#03112:13
#0311b:13000013
#03118:00130000
#03115:0013
#0371b:00130000
#03715:0000130000000013
#03718:00000013
#03612:0013
#03618:0013
#0361b:13
#03615:13
#04118:00130000
#04112:00130000
#0411b:0013
#04115:0013
#03918:0013
#03915:00000013
#03818:13000013
#03815:0000001300000000
#03812:0000000000000013
#04012:23000013
#04018:23000013
#04015:0013
#0401b:0013
#04218:00130000
#0421b:13
#04215:0013
#04212:00000013
#04412:1323
#0441b:1323
#04612:1300000000000013
#0461b:0000001300000000
#04716:00000000001300000000000000000000
#04815:00000013
#04810:41
#05115:00130000
#05218:00000013
#05518:00000013
#06118:0000000000000013
#0661b:13
#06618:00130000
#06615:0013
#06612:00000013
#06715:0013
#06718:00000013
#0681b:13
#06915:0000000000000013
#07015:00000013
#07018:0000000000000013
#07115:0013
#07118:00000013
#07112:24
#0711a:0024000000000000
#0731a:00140000
#07315:00140000
#07310:41
#07518:0013
#07515:00000013
#07612:14
#07617:14
#0761a:0014
#07615:0014
#08315:0013
#08318:00000013
#08412:1424
#0841a:1424
#08414:00000014
#08418:00000014
#0891b:13000013
#08915:0013001300130000
#08918:00231300
#08912:23000023
#08910:41
#0901b:13
#09018:0013000013002300
#09015:1300230000130000
#09012:0000001300001300
#0911b:13000013
#09115:0013001300002300
#09112:1313
#09118:0000230000130000
#10115:00000000000000000000000000000013
#10118:00000000000000000000000000000013
#09318:0013001300130000
#0931b:13000013
#09315:00232300
#09312:23000023
#09412:13
#09415:0013000023002300
#09418:2300230000130000
#0941b:0000001300001300
#03215:0013
#0321b:0013
#03212:23
#03218:23
#03210:41
#0641f:11
#06418:23
#05312:00000024
#0951a:24
#08215:00230000
#08218:0023
#08212:23000023
#0821b:00000023
#08219:0000000000000033
#08214:0000000000000033
#08813:00000024
#08819:00000024
#09612:24240000
#09618:0024002400000000
#09614:00002424
#0961a:0000000000240024
#0721a:24
#07215:24
#07212:0024
#07217:0024
#0721f:21
#09213:00230000
#09219:00230000
#0921a:0023
#0921b:00000023
#09215:00000023
#09214:0023
#09212:23
#09218:23
#0971a:0024
#09712:0024
#05615:23
#01652:0000000000000063
#01658:0000006300000000
#03252:63
#03258:63
#03255:0053
#0325b:0053
#0345b:00000053
#0445b:1353
#04452:1363
#07455:00000053
#0745b:00000053
#0805a:54000024
#08055:54000024
#08052:0064
#08057:0064
#0845a:1454
#08452:1464
#08454:00000024
#08458:00000024
#08358:13
#08355:13
#00752:0013
#0075b:0013
#03352:00630000
#03358:00630000
#08155:00540000
#0815a:00540000
#08152:0024
#08157:0024
#0825b:00000053
#08252:00000063
#01755:0000005300000000
#01958:0063000000000000
#0195b:0000001300000000
#02052:0000000000000063
#02252:0000000000000063
#02355:00230000000000000000000000000000
#0245b:0000000000000053
#02558:0000006300000000
#02755:0053000000000000
#02752:0000001300000000
#0285b:0000000000000053
#02858:63
#03055:53
#0305b:53
#03058:0063
#03052:0063
#0375b:00530000
#03755:00530000
#03652:0063
#03658:0063
#0365b:53
#03655:53
#04058:63000023
#04052:63000023
#04055:0053
#0405b:0053
#04158:00630000
#04152:00630000
#0415b:0023
#04155:0023
#03855:0000005300000000
#03858:63
#03852:0000000000000063
#04252:00000063
#0455b:0000001300000000
#04552:0000001300000000
#04555:63
#04558:53
#04652:5300000000000053
#0465b:0000006300000000
#04756:00000000002300000000000000000000
#0725a:54
#07255:54
#07252:0064
#07257:0064
#0735a:00540000
#07355:00540000
#07752:00640000
#07757:00640000
#07652:64
#07657:64
#0765a:0054
#07655:0054
#0855a:00140000
#08552:00140000
#08652:53
#0865b:63
#0975a:0064
#09752:0054
#10155:00000000000000000000000000000063
#10158:00000000000000000000000000000053
#016380:0000001300000000
#0163b0:0000000000230000
#016320:0000000000000013
#017350:0023000000000000
#017350:0000001300000000
#017320:0000000000230000
#019380:0013000000000000
#0193b0:0000002300000000
#020320:0000000000000013
#021350:0023000000000000
#022320:0000000000000013
#023350:00530000000000000000000000000000
#023320:00230000
#0243b0:0000000000000013
#025380:0023000000000000
#025380:0000001300000000
#0253b0:0000000000230000
#027350:0013000000000000
#027320:0000002300000000
#028380:13
#0283b0:00230000
#0283b0:0000000000000013
#029380:0023000000000000
#030350:13
#030320:00230000
#0303b1:13
#030381:00230000
#030381:0013
#0303b1:00000023
#030320:0013
#030350:00000023
#032320:13
#032350:00230000
#032381:13
#0323b1:00230000
#0323b1:0013
#033381:23
#032350:0013
#033320:23
#033380:00130000
#0333b0:00000023
#033321:00130000
#033351:00000023
#0343b1:00000013
#035381:23
#0363b1:13
#036381:00230000
#036350:13
#036320:00230000
#036320:0013
#037350:23
#036381:0013
#0373b1:23
#037351:00130000
#037321:0023
#0373b0:00130000
#037380:0023
#038380:13
#0383b0:00230000
#038350:0000001300000000
#038320:0000000000230000
#038320:0000000000000013
#039350:00230000
#040380:13
#0403b0:00230000
#040321:13
#040351:00230000
#040351:0013
#040321:00000053
#041351:23
#0403b0:0013
#040380:00000053
#0413b0:23
#041320:00130023
#041350:0053
#041381:00130023
#0413b1:0053
#042321:00000013
#043351:23
#0443b1:0013
#045381:33
#0453b1:0000332300000000
#044320:0013
#045350:33
#045320:0000332300000000
#046320:13
#046350:00230000
#0463b0:0000001300000000
#046380:00000023
#046320:0000000000000013
#047360:00000000005300000000000000000000
#047320:00000023
#048380:13
#048390:0033000000000000
#0483a0:00330000
#0483b0:0000003300230000
#0483b0:0000000000000013
#049380:00230000
#049320:0000001300000000
#049350:00000023
#049380:0000000000000013
#0503b0:00230000
#050350:0000001300000000
#050320:00000023
#050380:0000000000000013
#051380:0023000000000000
#051380:0000001300000000
#0513b0:00000023
#052350:13
#052340:0033000000000000
#052330:00330000
#052320:0000003300230000
#052320:0000000000000013
#053350:00230000
#0533b0:0000001300000000
#053380:0000000000230000
#053320:00000014
#054320:3434
#054330:003400000034003400000034
#054340:003434003434
#054350:00340034
#055320:3424
#055330:003400000034000000000000
#055340:003434000000
#055350:00340000
#0563b0:0013
#057380:33330000
#0573b0:00000023
#060380:0013
#0613b0:23
#061350:00130000
#061320:00000023
#062320:1300000000332300
#062350:0000333300000000
#064320:0013
#065350:33330000
#065320:00000023
#066380:0000000000000013
#0673b0:00230000
#068350:0013
#069320:23
#069380:00130000
#0693b0:00000023
#0703b0:1300000000230000
#070380:0000333300000000
#0723a0:14
#072370:00240000
#072351:14
#072321:00240000
#072321:0014
#073351:24
#072370:0014
#0733a0:24
#073350:00140000
#073320:00000024
#0733a1:00140000
#073371:00000024
#074351:00000013
#074331:0000000000000033
#075321:23
#0743b0:00000013
#074390:0000000000000033
#075380:23
#076320:14
#076350:00240000
#076371:14
#0763a1:00240000
#0763a1:0014
#077371:24
#076350:0014
#077320:24
#077370:00140000
#0773a0:0024
#077321:00140000
#077351:0024
#078321:13
#078351:00230000
#078381:0000001300000000
#0783b1:00000023
#078351:0000000000000013
#079321:00230000
#0803a1:14
#080371:00240000
#080350:14
#080320:00240000
#080320:0014
#080350:00000054
#081320:24
#080371:0014
#0803a1:00000054
#081371:24
#0813a1:00140024
#081371:0054
#081350:00140024
#081320:0054
#0823b0:00000013
#082390:0000000000000033
#083380:23
#082321:00000013
#082341:0000000000000033
#083351:23
#0843a1:0014
#084381:00000054
#0853a1:34240000
#084320:0014
#084340:00000054
#085320:34240000
#086320:13
#086350:0023
#0863b1:13
#086381:0023
#0953a1:1400003400002400
#095371:00000034000000000034000000000000
#097321:0014
#101351:00000000000000000000000000000053
#102321:0000002300000000
#0973a0:0014
#101380:00000000000000000000000000000053
#1023b0:0000002300000000
