This file was generated by Ched 2.6.4.0.
#TITLE ""
#ARTIST ""
#DESIGNER ""
#DIFFICULTY 0
#PLAYLEVEL
#SONGID ""
#WAVE ""
#WAVEOFFSET 0
#JACKET ""
#REQUEST "ticks_per_beat 480"
#00002: 4
#BPM01: 173
#00008: 01
#TIL00: ""
#HISPEED 00
#MEASUREHS 00
#0161b:2300131300001313
#01612:2300000000000013
#01616:00130000
#01617:0000000013130000
#01716:0000001300001300
#01714:0000130000000013
#01712:0013000013000000
#0171b:0000001300131300
#01717:13
#01915:0013000000000000
#01917:23130013
#01919:0000000000000013
#01912:1300001300001300
#0191b:0013000000130000
#01916:0013
#01819:0013001300130013
#01817:2323
#0181b:00230023
#0211b:0000130000000013
#02117:0013131300131300
#02112:0000001300000000
#0001a:00120012
#0001c:0012
#00018:12
#0011c:12
#0011a:00120012
#00118:0012
#04618:1300001313000013
#04612:1313
#04615:0013130000131300
#0461b:00130013
#04515:0000000000000013
#0451b:00000013
#04518:0000240000130000
#04512:0000002400001300
#0451a:0000002400000000
#04514:00240000
#03517:00000013
#03512:1c131313
#03516:0000001400140013
#0351b:0000130013000013
#0361b:0000130000130013
#03616:00130000
#03619:0000001300000000
#03612:00001313
#03615:0000000000000013
#03617:0013
#03614:0000001300000000
#08818:0000000000140000
#08814:00000000000000000000001400000000
#08812:0000002c
#09416:1800001818000014
#09412:24000000180000182400000018140014
#09414:0018000000180000
#0941a:00240024
#00214:00120012
#00216:0012
#00212:12
#00316:12
#00314:00120012
#00312:0012
#0041a:00120012
#0041c:0012
#00418:12
#00412:14141414
#0051c:12
#0051a:00120012
#00518:0012
#00512:14141414
#00614:00120012
#00616:0012
#00612:12
#0061a:14141414
#02016:1300000013000013
#02012:00130013
#02014:0013001300130000
#02017:00130013
#0201b:1300000013000013
#02010:41
#03012:1314
#03016:0013000000140014
#0301b:13130000
#03017:0000001300000000
#0301a:00000014
#03117:00121200
#03112:14000016
#03115:00000000000000000000161600000000
#03118:00000016
#03712:1300001300001300
#03716:0000130000130000
#03717:0013000000000013
#0371b:13001313
#03812:13131313
#03816:0013001300000013
#0381b:0013001300130013
#03817:13001313
#03912:1600001616130000
#03918:00001600160000130000000000130013
#03915:00000013000000000000000013001300
#0391b:0000000000130000
#04416:0014000000000000
#0441b:13131300
#04412:13132300
#04415:0000001600000000
#05112:1300001400000000
#05116:000000000000000000000000000000000000000000000000000000000000000000000000000000000000000000000000000000000000000000000000000000000000000000000000000000000000000000000000000000000000000000000000000000000000000000000000000000000000000000000000000000000000000000000000000000000000000000000000000000000000000000000000000000000000000000000000000000000000000000000000000000000000000000000000000000000000000000000000000000000000000000000000000000000000000000000000000000000000000000000000000000000000000000000000000000000000000000000000000000000000000000000000000000000000000000000000000000000000000000000000000000000000000000000000000000000000000000000000000000000000000000000000000000000000000000000000000000000000000000000000000000000000000000000000000000000000000000000000000000000000000000000000000000000000000000000000000000000000000000000000000000000000000000000000000000000000000000000000000000000000000000000000000000000000000000000000000000000000000000000000000000000000000000000000000000000000000000000000000000000000000000000000000000000000000000000000000000000000000000000000000000000000000000000000000000000000000000000000000000000000000000000000000000000000000000000000000000000000000000000000000000000000000000000000000000000000000000000000000000000000000000000000000000000000000000000000000000000000000000000000000000000000000000000000000000000000000000000000000000000000000000000000000000000000000000000000000000000000000000000000000000000000000000000000000000000000000000000000000000000000000000000000000000000000000000000000000000000000000000000000000000000000000000000000000000000000000000000000000000000000000000000000000000000000000000000000000000000000000000000000000000000000000000000000000000000000000000000000000000000000000000000000000000000000000000000000000000000000000000000000000000000000000000000000000000000000000000000000000000000000000000000000000000000000000000000000000000000000000000000000000000000000000000000000000000000000000000000000000000000000000000000000000000000000000000000000000000000000000000000000000000000000000000000000000000000000000000000000000000000000000000000000000000000000000000000000000000000000000000000014140000000000000000000000000000000000000000000000000000000000000000000000000000000000000000000000000000000000000000000000000000000000000000000000000000000000000000000000000000000000000000000000000000000000000000000000000000000000000000000000000000000000000000000000000000000000000000000000000000000000000000000000000000000000000000000000000000000000000000000000000000000000000000000000000000000000000000000000000000000000000000000000000000000000000000000000000000000000000000000000000000000000000000000000000000000000000000000000000000000000000000000000000000000000000000000000000000000000000000000000000000000000000000000000000000000000000000000000000000000000000000000000000000000000000000000000000000000000000000000000000000000000000000000000000000000000000000000000000000000000000000000000000000000000000000000000000000000000000000000000000000000000000000000000000000000000000000000000000000000000000000000000000000000000000000000000000000000000000000000000000000000000000000000000000000000000000000000000000000000000000000000000000000000000000000000000000000000000000000000000000000000000000000000000000000000000000000000000000000000000000000000000000000000000000000000000000000000000000000000000000000000000000000000000000000000000000000000000000000000000000000000000000000000000000000000000000000000000000000000000000000000000000000000000000000000000000000000000000000000000000000000000000000000000000000000000000000000000000000000000000000000000000000000000000000000000000000000000000000000000000000000000000000000000000000000000000000000000000000000000000000000000000000000000000000000000000000000000000000000000000000000000000000000000000000000000000000000000000000000000
#0511a:0000001400000000
#0511b:0013000000000000
#05119:00130000
#05114:00130000
#05418:001300260000000000000000
#05412:261300280014
#0541b:000000000013000000000000
#0541a:000000000000001400000000
#05416:000000000000000014280014
#05415:001300
#05518:001600000016000000000000
#05512:2a00160016002c0000130000
#05514:002a0000
#05517:00000000000000000000343400000000
#05517:0000000000340000
#0761b:00130013
#07616:00130013
#07614:0013000000000013
#07619:0000001300000000
#07617:0013
#07612:0013
#07916:00001414000014140000140000000000
#0791a:14241400
#07912:2400140024001616
#07918:00000000000000000000000000160016
#07412:13131313
#07416:0013001300130013
#07417:13130013
#0741b:0013001300130013
#07712:1300140000130000
#07717:0013000000000000
#0771b:0000130000000013
#0771a:0014
#07716:0000001400141300
#07812:14140014
#0781a:0000001400141400
#07816:0014000014000014
#08416:0014001400000000
#08412:13142400
#0841b:13
#0841a:00142400
#0751b:1300000013000013
#07512:00001313
#07519:0000000000130000
#07514:0000001300000000
#07517:0013000000001300
#07516:0000130000000013
#08916:0014281400140014
#08914:00000000000000140000000000000000
#0891a:14001414
#08912:24141428
#08910:41
#09012:14141428
#09016:0014281400140014
#09018:00000000000000140000000000000000
#0901a:14001414
#09216:0014001426140014
#0921a:14140000
#09212:26001414
#09214:00260000
#09218:00000026
#0951a:0000001400000000000000002400000000000000000000002400000000000000
#09516:2400000000000000001400000000001400000000001400000000000014000000
#09512:00000024000000000024000000000000
#00712:001c
#00714:00140014001400140000000000000000
#00718:1414141400000000
#01319:00131300
#01312:0000130000130013
#0131b:0013001300001300
#01316:00000000000000130000130013000000
#01318:13
#00912:1300130000131300
#0091b:0000130000131300
#00917:0013001300000000
#00914:00000000000000130000000000000000
#00919:0013
#00916:0000000000000013
#00817:00130013
#0081b:2300000013000013
#00819:0000001300130000
#00816:13000000000000130000000000000000
#00812:0000130000131300
#00814:0013000000000000
#00810:41
#01518:26000013000013000000000000001300
#0151a:0000000000130000
#01513:00000000000000000000001300000000
#01519:00000013
#01514:00000000000000000000000000130000
#01515:00001300000000130000000000000013
#01512:00000000260000000013000000000000
#0151b:0023
#0561b:2313
#05616:0013
#05612:13000013
#05719:0013000000000000
#05717:00130013
#0571b:1313
#05716:1313
#05712:00130013
#0581b:1313
#05816:1313
#05812:00130013
#05919:0013000000000000
#05917:00130000
#0591b:1313
#05912:00130000
#05914:0013
#05916:00000013
#0621b:13001313
#06212:0000001300000000
#06216:13000013
#0691b:00130013
#06914:0013000000000000
#06916:00130000
#06912:13001313
#06917:13
#06915:0000000000000013
#06918:00000000000000000000000000130000
#06018:13
#0601b:0013
#06012:1313
#06016:00130000
#06119:0013000000000000
#06117:00130013
#0611b:1313
#06112:00130013
#06116:1313
#06114:0000000000000033
#06412:2313
#06417:0013
#0641b:13000013
#0641f:11
#06514:0013000000000000
#06516:00130013
#06512:1313
#06517:1313
#0651b:00130013
#06612:1313
#06617:1313
#0661b:00130013
#06619:0000000000000033
#06714:0013000000000000
#06716:00130000
#06712:1313
#06719:0013
#06717:13000013
#06815:13
#06812:0013
#0681b:1313
#06817:00130000
#06312:00131300
#06318:00000000000000130000000000000000
#0631b:13000013
#06316:0000000000001313
#06319:0013000000000000
#06317:00130000
#06315:0000001300000000
#07115:00001323
#07118:2626000023001300
#07112:2626000000000000
#0701b:13131313
#07012:13131313
#07016:0014000000000000
#07015:0000001600000000
#07014:0000000000180000
#02217:1300000000130013
#02212:0013001300000000
#02216:00130000
#0221b:00001313
#02312:1313
#02314:0013001300000000
#02316:00130000
#02318:00000000000000000000001300001300
#02315:00000000000000000000130013000013
#0231b:00000013000000000000000000000000
#04718:13000000000013001300000000130000
#04712:13000000000000130000000013000000
#04715:0013130000130013
#0471b:00000013000000000000130000000013
#04816:0000130000000013
#0481b:0000130013000013
#04817:1300001300000000
#04812:1300001300130000
#04819:0013000000001300
#04814:0013000000001300
#04810:41
#04912:1300001300130013
#0491b:0013001300000013
#04914:00130013
#04919:00130013
#04917:0013
#05017:0000001300000000
#0501b:0013000013000013
#05012:0000001300130000
#05019:00130013
#05014:00130013
#05016:1300000000000013
#05217:0000130000000013
#05212:0000130013000013
#05216:1300001300000000
#0521b:1300001300130000
#05214:0013000000001300
#05219:0013000000001300
#0531b:1300001300130000
#05312:0013001300001600
#05319:00130000
#05314:00130000
#05316:0013
#08012:26130000
#08017:0000130000130000
#0801b:0013000023000000
#08014:0000001300000000
#08019:0000001300000000
#08016:0000000023000014
#08018:26
#0811b:1300230013000013
#08116:00001400000000000000000000000013
#08112:23000000230000000000000000130000
#08117:00001313
#08119:0000000000130000
#08217:0013001300130013
#08216:13132323
#08212:0013001300130013
#0821b:23231313
#08312:1323
#08316:0013000000002300
#08319:0000001300000000
#08317:00000000130000000000000000000013
#08314:0000000000130013
#0831b:23000000000000002300000023130000
#08612:16261428
#08616:00001400000014142800140000001400
#08618:26160000
#0861a:00000014
#0851b:0013
#08512:14001314
#0851a:14000014
#08516:000000000000000000000000000000000000000000000000000000000000000000000000000000000000000000000000000000000000000000000000000000000000000000000000000000000000000000000000000000000000000000000000000000000000000000000000000000000000000000000000000000000000000000000000000000000000000000000000000000000000000000000000000000000000000000000000000000000000000000000000000000000000000000000000000000000000000000000000000000000000000000000000000000000000000000000000000000000000000000000000141400000000000000000000000000000000000000000000000000000000000000000000000000000000000000000000000000000000000000000000000000000000000000000000000000000000000000000000000000000000000000000000000000000000000000000000000000000000000000000000000000000000000000000000000000000000000000000000000000000000000000000000000000000000000000000000000000000000000000000000000000000000000000000000000000000000000000000000000000000000000000000000000000000000000000000000000000000000000000000000000000000000000000000000000000000000000000000000000000000000000000000000000000000000000000000000000000000000000000000000000000000000000000000000000000000000000000000000000000000000000000000000000000000000000000000000000000000000000000000000000000000000000000000000000000000000000000000000000000000000000000000000000000000000000000000000000000000000000000000000000000000000000000000000000000000000000000000000000000000000000000000000000000000000000000000000000000000000000000000000000000000000000000000000000000000000000000000000000000000000000000000000000000000000000000000000000000000000000000000000000000000000000000000000000000000000000000000000000000000000000000000000000000000000000000000000000000000000000000000000000000000000000000000000000000000000000000000000000000000000000000000000000000000000000000000000000000000000000000000000000000000000000000000000000000000000000000000000000000000000000000000000000000000000000000000000000000000000000000000000000000000000000000000000000000000000000000000000000000000000000000000000000000000000000000000000000000000000000000000000000000000000000000000000000000000000000000000000000000000000000000000000000000000000000000000000000000000000000000000000000000000000000000000000000000000000000000000000000000000000000000000000000000000000000000000000000000000000000000000000000000000000000000000000000000000000000000000000000000000000000000000000000000000000000000000000000000000000000000000000000000000000000000000000000000000000000000000000000000000000000000000000000000000000000000000000000000000000000000000000000000000000000000000000000000000000000000000000000000000000000000000000000000000000000000000000000000000000000000000000000000000000000000000000000000000000000000000000000000000000000000000000000000000000000000000000000000000000000000000000000000000000000000000000000000000000000000000000000000000000000000000000000000000000000000000000000000000000000000000000000000000000000000000000000000000000000000000000000000000000000000000000000000000000000000000000000000000000000000000000000000000000000000000000000000000000000000000000000000000000000000000000000000000000000000000000000000000000000000000000000000000000000000000000000000000000000000000000000000000000000000000000000000000000000000000000000000000000000000000000000000000000000000000000000000000000000000000000000000000000000000000000000000000000000000000000000000000000000000000000140000000000000000000000000000000000000000000000000000000000000000000000000000000000000000000000000000000000000000000000000000000000000000000000000000000000000000000000000000000000000000000000000000000000000000000000000000000000000000000000000000000000000000000000000000000000000000000000000000000000000000000000000000000000000000000000000000000000000000000000000000000000000000000000000000000000000000000000000000000000000000000000000000000000000000000000000000000000000000000000
#10116:0000000000000014
#1011a:00000000000000000000000000000014
#10212:18
#0911a:14141400
#09112:14281414
#09116:00001400000014140000140028001400
#09316:1800001818000000
#09312:24000000180000182400000018000000
#09314:0018000000180018
#0931a:00240024
#0111b:1300130000131300
#01112:0000130000131300
#01116:0013001300000000
#01119:00000000000000130000000000000000
#01114:0013
#01117:0000000000000013
#01016:00130013
#01012:0000000013000013
#01014:0000001300130000
#01017:13000000000000130000000000000000
#0101b:0000130000131300
#01019:0013000000000000
#01212:2300130000131300
#01216:0000001300000013
#01219:00000000000000130000000000000000
#01217:0013000000130000
#01214:0013
#0121b:00130013
#0141b:1300130000130000
#01416:0000000000131313
#01412:0013130000001300
#01417:0000001300000000
#01414:00000000000000130000000000000000
#01419:0013
#02412:2300131300001313
#0241b:2300000000000013
#02417:00130000
#02416:0000000013130000
#02517:0000001300001300
#02519:0000130000000013
#0251b:0013000013000000
#02512:0000001300131300
#02516:13
#02714:0000000000000013
#02718:0013000000000000
#0271b:1300001300001300
#02716:23130013
#02712:0013000000130000
#02717:0013
#02817:1300000013000013
#0281b:00130013
#02819:0013001300130000
#02816:00130013
#02812:1300000013000013
#02912:0000130000130013
#02917:0000130000130013
#0291b:0000001300001300
#02916:0000001300001300
#03212:13001613
#03217:0000000000130000
#0321b:0013
#03218:2600160000000016
#03215:0000001600000000
#03216:0013000000000000
#03210:41
#03318:13
#03312:1316000013000000
#03314:0000000000130013
#03316:00001413
#0331a:00140000
#03315:00130000
#03417:1300001300130000
#03412:1300001300131300
#0341b:0013000013000000
#03415:00130000
#03416:0013000000000000
#0401b:13000013
#04016:0000000000130000
#04012:2600160013000016
#04015:0000001600000000
#04017:0013000000000000
#04018:0016
#04115:13
#0411b:1313
#04119:0000000000130013
#04117:00000013
#04112:00140000
#04118:0016130000000000
#04116:0014
#04216:1300001300130000
#0421b:1300001300131300
#04212:0013000013000000
#04218:00130000
#04217:0013000000000000
#04316:14
#04314:0018000000000000
#04312:00000000140000001300000000130000
#04315:00000000000000000000001300000013
#04318:0000000000130013
#0431b:00001313
#0431a:00140000
#0721b:00130000
#07216:0000130000130014
#07212:2613000023000000
#07219:0000001300000000
#07214:0000001300000000
#07218:26
#07217:0023
#0721f:21
#07312:1300230013000013
#07316:0014000013001300
#0731b:2300230000000013
#07314:0000000000130000
#07310:41
#02614:0013001300130013
#02616:2323
#02612:00230023
#09612:2400240026262626
#09616:0024000000000000
#09614:0000002800000000
#09618:0000000026262626
#0961a:00240000
#08712:2c
#09712:002c
#01952:0000005300000000
#01957:00230000
#0195b:0053004300000000
#01955:0033000000000000
#01956:0023
#03557:00000063
#03552:00000063
#03556:0000000000000023
#0355b:0000000000000023
#03052:53335434
#03056:0023000000240024
#0305b:43634300
#03057:0000002300000000
#0305a:00000064
#03756:00630000
#03752:3300002300000000
#0375b:63430000
#03757:0023000000000000
#03852:1323
#0385b:0023001300000000
#03857:53
#03856:0000006300000000
#05152:2300006400003400
#05156:000000000000000000000000000000000000000000000000000000000000000000000000000000000000000000000000000000000000000000000000000000000000000000000000000000000000000000000000000000000000000000000000000000000000000000000000000000000000000000000000000000000000000000000000000000000000000000000000000000000000000000000000000000000000000000000000000000000000000000000000000000000000000000000000000000000000000000000000000000000000000000000000000000000000000000000000000000000000000000000000000000000000000000000000000000000000000000000000000000000000000000000000000000000000000000000000000000000000000000000000000000000000000000000000000000000000000000000000000000000000000000000000000000000000000000000000000000000000000000000000000000000000000000000000000000000000000000000000000000000000000000000000000000000000000000000000000000000000000000000000000000000000000000000000000000000000000000000000000000000000000000000000000000000000000000000000000000000000000000000000000000000000000000000000000000000000000000000000000000000000000000000000000000000000000000000000000000000000000000000000000000000000000000000000000000000000000000000000000000000000000000000000000000000000000000000000000000000000000000000000000000000000000000000000000000000000000000000000000000000000000000000000000000000000000000000000000000000000000000000000000000000000000000000000000000000000000000000000000000000000000000000000000000000000000000000000000000000000000000000000000000000000000000000000000000000000000000000000000000000000000000000000000000000000000000000000000000000000000000000000000000000000000000000000000000000000000000000000000000000000000000000000000000000000000000000000000000000000000000000000000000000000000000000000000000000000000000000000000000000000000000000000000000000000000000000000000000000000000000000000000000000000000000000000000000000000000000000000000000000000000000000000000000000000000000000000000000000000000000000000000000000000000000000000000000000000000000000000000000000000000000000000000000000000000000000000000000000000000000000000000000000000000000000000000000000000000000000000000000000000000000000000000000000000000000000000000000000000000000000024240000000000000000000000000000000000000000000000000000000000000000000000000000000000000000000000000000000000000000000000000000000000000000000000000000000000000000000000000000000000000000000000000000000000000000000000000000000000000000000000000000000000000000000000000000000000000000000000000000000000000000000000000000000000000000000000000000000000000000000000000000000000000000000000000000000000000000000000000000000000000000000000000000000000000000000000000000000000000000000000000000000000000000000000000000000000000000000000000000000000000000000000000000000000000000000000000000000000000000000000000000000000000000000000000000000000000000000000000000000000000000000000000000000000000000000000000000000000000000000000000000000000000000000000000000000000000000000000000000000000000000000000000000000000000000000000000000000000000000000000000000000000000000000000000000000000000000000000000000000000000000000000000000000000000000000000000000000000000000000000000000000000000000000000000000000000000000000000000000000000000000000000000000000000000000000000000000000000000000000000000000000000000000000000000000000000000000000000000000000000000000000000000000000000000000000000000000000000000000000000000000000000000000000000000000000000000000000000000000000000000000000000000000000000000000000000000000000000000000000000000000000000000000000000000000000000000000000000000000000000000000000000000000000000000000000000000000000000000000000000000000000000000000000000000000000000000000000000000000000000000000000000000000000000000000000000000000000000000000000000000000000000000000000000000000000000000000000000000000000000000000000000000000000000000000000000000000000000000000000000
#0515a:0000005400004400
#07457:63630000
#0745b:0023002300000000
#07452:00006363
#07456:0000000000230023
#07752:13640000
#0775b:00130000
#0775a:0054
#07756:0000002400240000
#07852:14
#0785a:0000001400000000
#09556:5400000000000000002400000000002400000000002400000000000024000000
#0955a:0000002400000000000000006400000000000000000000006400000000000000
#09552:00000054000000000054000000000000
#00752:004c
#0085b:1300000000000023
#00857:00000053
#00956:0000000000000023
#00952:13000053
#01352:3300000000000023
#01356:00000063
#0565b:0013
#05652:53000023
#05656:0063
#0575b:0013
#05756:6323
#05752:00530053
#0585b:0013
#05856:6363
#05852:00530053
#0595b:0013
#0605b:0013
#06052:5353
#06056:00230000
#0615b:0013
#06152:00530053
#06156:6323
#0625b:0013
#06252:0000005300000000
#06256:63000063
#06452:0013
#06457:0053
#0645b:63000023
#06552:0013
#06557:5323
#0655b:00630063
#06652:0013
#06657:5353
#0665b:00630063
#06752:0013
#06757:53
#06852:0013
#0685b:6363
#06857:00230000
#06952:0013
#06957:53
#0695b:00630000
#06352:0013
#01752:0023
#01756:0000005300000000
#01757:23
#0175b:0000001300000000
#0315a:44
#03152:34000036
#03158:00000046
#03657:3353
#03652:33
#0365b:0000000000230000
#04652:3333
#0465b:00430043
#04752:33
#0485b:0000000023000013
#04857:0000005300000000
#04856:0000000000000063
#04852:0000001300000000
#04952:2300001300000053
#0495b:0000006300000013
#04957:0023
#05057:0000005300000000
#0505b:0000000023000013
#05056:2300000000000063
#05052:0000001300000000
#05252:0000000023000013
#05256:0000006300000000
#05257:0000000000000053
#0525b:0000001300000000
#0535b:2300001300000000
#05356:0023
#05352:0000005300001600
#0755b:6300000000000023
#07557:0023000000006300
#07552:33000063
#07556:0000000000000023
#07657:3363
#07652:33
#0765b:00000023
#08256:53533300
#08252:0023002300000000
#0825b:13005353
#08257:0000000000230023
#08352:53
#08356:0023000000000000
#0835b:43
#0845b:13
#08452:13
#08552:54340000
#0855a:64440000
#08556:000000000000000000000000000000000000000000000000000000000000000000000000000000000000000000000000000000000000000000000000000000000000000000000000000000000000000000000000000000000000000000000000000000000000000000000000000000000000000000000000000000000000000000000000000000000000000000000000000000000000000000000000000000000000000000000000000000000000000000000000000000000000000000000000000000000000000000000000000000000000000000000000000000000000000000000000000000000000000000000000242400000000000000000000000000000000000000000000000000000000000000000000000000000000000000000000000000000000000000000000000000000000000000000000000000000000000000000000000000000000000000000000000000000000000000000000000000000000000000000000000000000000000000000000000000000000000000000000000000000000000000000000000000000000000000000000000000000000000000000000000000000000000000000000000000000000000000000000000000000000000000000000000000000000000000000000000000000000000000000000000000000000000000000000000000000000000000000000000000000000000000000000000000000000000000000000000000000000000000000000000000000000000000000000000000000000000000000000000000000000000000000000000000000000000000000000000000000000000000000000000000000000000000000000000000000000000000000000000000000000000000000000000000000000000000000000000000000000000000000000000000000000000000000000000000000000000000000000000000000000000000000000000000000000000000000000000000000000000000000000000000000000000000000000000000000000000000000000000000000000000000000000000000000000000000000000000000000000000000000000000000000000000000000000000000000000000000000000000000000000000000000000000000000000000000000000000000000000000000000000000000000000000000000000000000000000000000000000000000000000000000000000000000000000000000000000000000000000000000000000000000000000000000000000000000000000000000000000000000000000000000000000000000000000000000000000000000000000000000000000000000000000000000000000000000000000000000000000000000000000000000000000000000000000000000000000000000000000000000000000000000000000000000000000000000000000000000000000000000000000000000000000000000000000000000000000000000000000000000000000000000000000000000000000000000000000000000000000000000000000000000000000000000000000000000000000000000000000000000000000000000000000000000000000000000000000000000000000000000000000000000000000000000000000000000000000000000000000000000000000000000000000000000000000000000000000000000000000000000000000000000000000000000000000000000000000000000000000000000000000000000000000000000000000000000000000000000000000000000000000000000000000000000000000000000000000000000000000000000000000000000000000000000000000000000000000000000000000000000000000000000000000000000000000000000000000000000000000000000000000000000000000000000000000000000000000000000000000000000000000000000000000000000000000000000000000000000000000000000000000000000000000000000000000000000000000000000000000000000000000000000000000000000000000000000000000000000000000000000000000000000000000000000000000000000000000000000000000000000000000000000000000000000000000000000000000000000000000000000000000000000000000000000000000000000000000000000000000000000000000000000000000000000000000000000000000000000000000000000000000000000000000000000000000000000000000000000000000000000000000000000000000000000000000000000000000000000000000000000000000000000000000000000000000000000000000000000000000000000000000000000000000000000000000000000000000000000000000000000000000000000000000000000000000000000000000000000000000000000000000000000000000000000000000000000000000000000000000000000000000000000000000000000000000000000000000000000000000000000000000000000000000000000000000000000000000000000000000000000000000000000000000000000000000000000000000000000000000000000000000000000000000000000000000000000000000000000000000000000000000
#08852:0000001c
#08157:0023
#08152:13530000
#0815b:00130000
#09658:00004646
#09652:3400000000360036
#0965a:00440000
#09752:005c
#10252:68
#08952:34
#01052:3300000000000023
#01056:00000063
#01157:0000000000000023
#0115b:13000063
#01252:13000053
#01256:0000000000000023
#01452:00000053
#01456:0000000000000023
#0145b:13
#01652:3300000000000013
#0165b:4300000000000053
#02056:0000000000000023
#0205b:0000000000000013
#02157:0000002300000000
#02152:0000001300000000
#0245b:4300000000000013
#02452:3300000000000063
#0255b:0023
#02557:0000006300000000
#02552:0000001300000000
#02556:23
#02852:0000000000000023
#02857:0000000000000023
#03952:1616
#03958:00160000
#0345b:0023000063004300
#03457:6300000000230000
#03452:0000002300003300
#03455:00530000
#03257:0000000000230000
#0325b:0063
#03256:0023000000000000
#03252:5316
#03258:16
#03358:13
#0335a:00540000
#03355:00130000
#03356:0024
#04056:0000000000230000
#04052:1653
#04057:0023000000000000
#0405b:63
#04058:0016
#04155:13
#04152:00640000
#04158:00130000
#04156:0024
#04256:5300000000230000
#0425b:0000002300004300
#04252:0023000053003300
#04258:00630000
#04352:00140000
#0435a:00140000
#09252:36
#09254:00360000
#09256:0036
#09258:00000036
#09352:1414
#0935a:00140014
#09452:1414
#0945a:00140014
#02257:0000000000000053
#0235b:00000023000000000000000000000000
#02758:0043000000000000
#0275b:0000006300000000
#02756:00230000
#02752:0063003300000000
#02757:0023
#04554:00340000
#04552:0000003400000000
#04558:00440000
#0455a:0000004400000000
#07356:0023
#0735b:13630000
#07352:00130000
#07256:0000000000230000
#07257:0063
#07252:0063
#07258:46
#01552:33
#07952:1414
#0795a:00140000
#08057:0000000000230000
#08056:0053
#0805b:0053
#08052:36
#08652:00360038
#08656:0048
#08658:46
#0295b:0000001300000000
#02952:00130000
#0445b:1363
#04452:1353
#000340:12
#001340:00000022
#0023a0:12
#0033a0:00000022
#008370:00000013
#0083b0:0000000000000053
#009370:23
#009320:00000013
#009360:0000000000000053
#010320:23
#010360:00000013
#010320:0000000000000053
#011360:23
#0113b0:00000013
#011370:0000000000000053
#0123b0:23
#012320:00000013
#012360:0000000000000053
#013320:23
#013360:00000013
#013320:0000000000000053
#014360:23
#014320:00000013
#014360:0000000000000053
#015320:23
#016360:0000001300000000
#016320:0023
#016320:0000000000130000
#016360:00000023
#0163b0:0000000000000013
#017370:53
#0173b0:0023000000000000
#017360:0000001300230000
#017320:0053
#018320:1323000000000000
#018350:0000132300000000
#018320:0000000013230000
#018350:0000000000001323
#0193b0:0013002300000000
#019370:00530000
#019321:0000001300230000
#019361:0053
#020361:0000000000000013
#021321:0023000000000000
#021371:0000001300000000
#0213b1:0000000000230000
#021321:00000013
#021361:0000000000000033
#022321:23
#022371:0013002300000000
#0223b1:00330000
#022361:00001323
#022321:0000000000330000
#022371:0000000000000013
#0233b1:00000053000000000000000000000000
#023371:0023
#024371:0000001300000000
#0243b1:0023
#0243b1:0000000000130000
#024371:00000023
#024321:0000000000000013
#025361:53
#025321:0023000000000000
#025371:0000001300230000
#0253b1:0053
#0263b1:1323000000000000
#026381:0000132300000000
#0263b1:0000000013230000
#026381:0000000000001323
#027321:0013002300000000
#027361:00530000
#0273b0:0000001300230000
#027370:0053
#028320:0000000000000013
#029360:0023000000000000
#028371:0000000000000013
#0293b1:0023000000000000
#030321:13230000
#030361:0053000000000000
#0303b0:00132300
#030370:0000005300000000
#030321:00001424
#030361:0000000000540000
#0303a0:00000014
#030360:0000000000000054
#0313a0:24
#032320:13230000
#032360:0053000000000000
#0323b0:00001323
#032370:0000000000530000
#0333a0:00140024
#033360:0054
#034370:13
#0343b0:0053000000000000
#034380:00230000
#034351:00130000
#034321:0000005300000000
#034361:0023
#0343b0:00001323
#034370:0000000000530000
#035370:00000013
#0353b0:0000000000000053
#036370:23
#035321:00000013
#035361:0000000000000053
#036321:23
#036371:00001323
#0363b1:0000000000530000
#0373b1:13230000
#037371:0053000000000000
#037360:00132300
#037320:0000005300000000
#038370:13230000
#0383b0:0053000000000000
#038360:0000001300230000
#038320:0053
#0403b0:13230000
#040370:0053000000000000
#040320:00001323
#040360:0000000000530000
#041320:00140024
#041360:0054
#042360:13
#042320:0053000000000000
#042350:00230000
#042381:00130000
#0423b1:0000005300000000
#042371:0023
#042320:00001323
#042360:0000000000530000
#044320:0013
#044350:0000000000530000
#044360:0000000000000000000000000000000000000000005300530053005300530053
#044340:00000000000000000000005353535353
#045350:23
#0443b1:0013
#044381:0000000000530000
#044391:0000000000000000000000000000000000000000005300530053005300530053
#044371:00000000000000000000005353535353
#045381:23
#048371:0000001300230000
#0483b1:0053
#048361:0000000000000013
#049321:53
#049361:0023000000000000
#0493b1:0000001300230000
#049371:0053
#049321:0000000000000013
#050361:53
#050321:0023000000000000
#050371:0000001300230000
#0503b1:0053
#050361:0000000000000013
#051321:53
#051361:0023000000000000
#051321:0000001400002400
#051361:00000000000000000054000000000000
#0513a0:0000001400002400
#051360:000000000000000000000000000000000000000000000000000000000000000000000000000000000000000000000000000000000000000000000000000000000000000000000000000000000000000000000000000000000000000000000000000000000000000000000000000000000000000000000000000000000000000000000000000000000000000000000000000000000000000000000000000000000000000000000000000000000000000000000000000000000000000000000000000000000000000000000000000000000000000000000000000000000000000000000000000000000000000000000000000000000000000000000000000000000000000000000000000000000000000000000000000000000000000000000000000000000000000000000000000000000000000000000000000000000000000000000000000000000000000000000000000000000000000000000000000000000000000000000000000000000000000000000000000000000000000000000000000000000000000000000000000000000000000000000000000000000000000000000000000000000000000000000000000000000000000000000000000000000000000000000000000000000000000000000000000000000000000000000000000000000000000000000000000000000000000000000000000000000000000000000000000000000000000000000000000000000000000000000000000000000000000000000000000000000000000000000000000000000000000000000000000000000000000000000000000000000000000000000000000000000000000000000000000000000000000000000000000000000000000000000000000000000000000000000000000000000000000000000000000000000000000000000000000000000000000000000000000000000000000000000000000000000000000000000000000000000000000000000000000000000000000000000000000000000000000000000000000000000000000000000000000000000000000000000000000000000000000000000000000000000000000000000000000000000000000000000000000000000000000000000000000000000000000000000000000000000000000000000000000000000000000000000000000000000000000000000000000000000000000000000000000000000000000000000000000000000000000000000000000000000000000000000000000000000000000000000000000000000000000000000000000000000000000000000000000000000000000000000000000000000000000000000000000000000000000000000000000000000000000000000000000000000000000000000000000000000000000000000000000000000000000000000000000000000000000000000000000000000000000000000000000000000000000000000000000000000000000000000054000000000000000000000000000000000000000000000000000000000000000000000000000000000000000000000000000000000000000000000000000000000000000000000000000000000000000000000000000000000000000000000000000000000000000000000000000000000000000000000000000000000000000000000000000000000000000000000000000000000000000000000000000000000000000000000000000000000000000000000000000000000000000000000000000000000000000000000000000000000000000000000000000000000000000000000000000000000000000000000000000000000000000000000000000000000000000000000000000000000000000000000000000000000000000000000000000000000000000000000000000000000000000000000000000000000000000000000000000000000000000000000000000000000000000000000000000000000000000000000000000000000000000000000000000000000000000000000000000000000000000000000000000000000000000000000000000000000000000000000000000000000000000000000000000000000000000000000000000000000000000000000000000000000000000000000000000000000000000000000000000000000000000000000000000000000000000000000000000000000000000000000000000000000000000000000000000000000000000000000000000000000000000000000000000000000000000000000000000000000000000000000000000000000000000000000000000000000000000000000000000000000000000000000000000000000000000000000000000000000000000000000000000000000000000000000000000000000000000000000000000000000000000000000000000000000000000000000000000000000000000000000000000000000000000000000000000000000000000000000000000000000000000000000000000000000000000000000000000000000000000000000000000000000000000000000000000000000000000000000000000000000000000000000000000000000000000000000000000000000000000000000000000000000000000000000000000000000000000000000000
#052360:0000001300230000
#052320:0053
#052370:0000000000000013
#0533b0:53
#053370:0023000000000000
#053320:0000001300230000
#053360:0053
#053380:0000000000000000000000000000000000000000000000001353535353535353
#053390:00000000000000000000000000000000000000000000000000000000000000000000000000000000000000000000000000530053005300530053005300530053
#054380:23
#0553a0:00000000000000000014000000000000
#055370:00000000000000000000343400000000
#055350:00000024
#056320:13000053
#056360:0033
#057360:3353
#057320:00330033
#058360:3333
#058320:00330033
#059360:23
#060320:1333
#060360:00530000
#061360:3353
#061320:00330033
#061340:0000000000000033
#062360:3300000000333300
#062320:0000333300000000
#063320:23
#0643b0:13000053
#064370:0033
#065370:3353
#0653b0:00330033
#066370:3333
#0663b0:00330033
#066390:0000000000000033
#067370:33
#0673b0:00230000
#0683b0:1333
#068370:00530000
#069370:3323
#0693b0:00330000
#072370:0013
#0723b0:0000000000532300
#072321:00001323
#072361:0000000000530000
#0733b1:00130023
#073361:0053
#074371:13332300
#0743b1:0053005300000000
#074320:00001333
#074360:0000000000530053
#075320:23
#0753b1:13230000
#075371:0053000000000000
#075371:00000013
#0753b1:0000000000000053
#076371:23
#075320:00000013
#075360:0000000000000053
#076320:23
#076370:0013
#0763b0:00000053
#077370:23
#077320:00142400
#077360:0000005400000000
#0773a1:00001424
#077361:0000000000540000
#078361:14240000
#0783a1:0034000000000000
#078361:0000001400240000
#078321:0034
#080361:0013
#080321:0000000000532300
#0803b0:00001323
#080370:0000000000530000
#081320:00130023
#081370:0053
#082360:13332300
#082320:0053005300000000
#0823b1:00001333
#082371:0000000000530053
#0833b1:23
#083320:13230000
#083360:0053000000000000
#084320:0000000014000054
#084380:00000000000000000054000000000000
#084340:0000000000540000
#084390:00000000000000000000005400540000
#084330:00000054
#0843a0:00000000000000000000000000000054
#085320:34240000
#085360:0054000000000000
#0843a1:0000000014000054
#084341:00000000000000000054000000000000
#084381:0000000000540000
#084331:00000000000000000000005400540000
#084391:00000054
#084321:00000000000000000000000000000054
#0853a1:34240000
#085361:000000000000000000000000000000000000000000000000000000000000000000000000000000000000000000000000000000000000000000000000000000000000000000000000000000000000000000000000000000000000000000000000000000000000000000000000000000000000000000000000000000000000000000000000000000000000000000000000000000000000000000000000000000000000000000000000000000000000000000000000000000000000000000000000000000000000000000000000000000000000000000000000000000000000000000000000000000000000000000000000005400000000000000000000000000000000000000000000000000000000000000000000000000000000000000000000000000000000000000000000000000000000000000000000000000000000000000000000000000000000000000000000000000000000000000000000000000000000000000000000000000000000000000000000000000000000000000000000000000000000000000000000000000000000000000000000000000000000000000000000000000000000000000000000000000000000000000000000000000000000000000000000000000000000000000000000000000000000000000000000000000000000000000000000000000000000000000000000000000000000000000000000000000000000000000000000000000000000000000000000000000000000000000000000000000000000000000000000000000000000000000000000000000000000000000000000000000000000000000000000000000000000000000000000000000000000000000000000000000000000000000000000000000000000000000000000000000000000000000000000000000000000000000000000000000000000000000000000000000000000000000000000000000000000000000000000000000000000000000000000000000000000000000000000000000000000000000000000000000000000000000000000000000000000000000000000000000000000000000000000000000000000000000000000000000000000000000000000000000000000000000000000000000000000000000000000000000000000000000000000000000000000000000000000000000000000000000000000000000000000000000000000000000000000000000000000000000000000000000000000000000000000000000000000000000000000000000000000000000000000000000000000000000000000000000000000000000000000000000000000000000000000000000000000000000000000000000000000000000000000000000000000000000000000000000000000000000000000000000000000000000000000000000000000000000000000000000000000000000000000000000000000000000000000000000000000000000000000000000000000000000000000000000000000000000000000000000000000000000000000000000000000000000000000000000000000000000000000000000000000000000000000000000000000000000000000000000000000000000000000000000000000000000000000000000000000000000000000000000000000000000000000000000000000000000000000000000000000000000000000000000000000000000000000000000000000000000000000000000000000000000000000000000000000000000000000000000000000000000000000000000000000000000000000000000000000000000000000000000000000000000000000000000000000000000000000000000000000000000000000000000000000000000000000000000000000000000000000000000000000000000000000000000000000000000000000000000000000000000000000000000000000000000000000000000000000000000000000000000000000000000000000000000000000000000000000000000000000000000000000000000000000000000000000000000000000000000000000000000000000000000000000000000000000000000000000000000000000000000000000000000000000000000000000000000000000000000000000000000000000000000000000000000000000000000000000000000000000000000000000000000000000000000000000000000000000000000000000000000000000000000000000000000000000000000000000000000000000000000000000000000000000000000000000000000000000000000000000000000000000000000000000000000000000000000000000000000000000000000000000000000000000000000000000000000000000000000000000000000000000000000000000000000000000000000000000000000000000000000000000000000000000000000000000000000000000000000000000000000000000000000000000000000000000000000000000000000000000000000000000000000000000000000000000000000000000000000000000000000000000000000000000000000000000000000000000000000000000000000000000000000000000000000000000000000000000000000000000000000000000
#087321:1c
#087371:00000022
#095361:14000024000000000000000000000000
#0953a1:0000005400000000000000000000000000000000000000000000000000000000
#095320:00000014000024000000000000000000
#095360:0000000000000000005400000000000000000000000000000000000000000000
#0953a1:00000000000014000024000000000000
#095361:0000000000000000000000000000005400000000000000000000000000000000
#095320:00000000000000000014000024000000
#095360:0000000000000000000000000000000000000000005400000000000000000000
#0953a1:00000014
#095361:0000000000000054
#0963a1:24
#097321:001c
#1013a1:0000000000000024
#102321:1800002300000000
