This file was generated by Ched 2.6.4.0.
#TITLE ""
#ARTIST ""
#DESIGNER ""
#DIFFICULTY 0
#PLAYLEVEL
#SONGID ""
#WAVE ""
#WAVEOFFSET 0
#JACKET ""
#REQUEST "ticks_per_beat 480"
#00002: 4
#BPM01: 173
#00008: 01
#TIL00: ""
#HISPEED 00
#MEASUREHS 00
#0081a:2414
#00814:00140000
#00810:41
#01414:2414
#0141a:00140000
#0161a:14
#01614:0014
#02012:14
#02018:0014
#02010:41
#02214:14
#0221a:0014
#0281a:1414
#02912:1414
#03014:0014
#03018:14
#0321a:0014
#03212:24
#03210:41
#03614:0014
#03618:14
#0041a:1414
#00514:1414
#01012:1414
#01018:00140000
#01218:2414
#01212:00140000
#0171a:14
#01714:0014
#01818:14
#01812:0014
#02112:14
#02118:0014
#02514:14
#02518:0014
#02718:14
#02714:0014
#03812:14
#03814:0014
#0381a:00000014
#03818:00140000
#03918:0014
#03914:00000014
#03912:14
#04818:0014
#04810:41
#04914:14
#0491a:0014
#05212:14
#0521a:0014
#05314:14
#05318:0014
#05414:0014
#05412:24
#05512:14
#05618:00003414
#0561a:14
#06414:0014
#0641f:11
#0641a:24
#0681a:14
#06814:0014
#06518:14
#06512:0014
#06618:0014
#0661a:14
#06918:14
#06912:0014
#08314:00000014
#08318:0014
#08312:14
#09212:14
#09214:0014
#09218:00140000
#0921a:00000014
#08112:14
#08118:00140000
#08114:0014
#0811a:00000014
#08212:14
#08218:00140000
#08214:0014
#0821a:00000014
#00618:1414
#00712:1414
#0241a:1414
#02612:1414
#04012:0014
#0401a:24
#04418:0014
#04414:14
#04618:1414
#04614:0000140000001434
#04118:14
#04114:00140000
#04218:14
#04212:00140000
#0421a:0014
#04214:00000014
#0431a:00140000
#04312:0014
#04318:00000014
#05012:14
#05018:0014
#05114:14
#0511a:0014
#06214:00003414
#06212:14
#05812:00003414
#05814:14
#0601a:00003414
#06018:14
#06712:0014
#07212:0016
#07218:26
#0721f:21
#07618:0014
#07612:14
#07914:0014
#0791a:00000014
#07918:14
#0731a:14
#07314:00140000
#07318:0014
#07312:00000014
#07310:41
#0741a:14
#07414:00140000
#07418:0014
#07412:00000014
#0751a:14
#07514:0014
#07518:00000014
#07818:14
#07812:00140000
#0781a:0014
#07814:00000014
#08018:0016
#08012:26
#08412:00140000
#08414:00000014
#0841a:14
#08418:0014
#08518:00000014
#0851a:24
#08512:00240000
#08914:00140000
#0891a:24
#08910:41
#09012:14
#09018:00140000
#0911a:14
#09114:00140000
#09312:24140000
#09318:00002414
#09414:24140000
#0941a:00002414
#0371a:14
#03718:0000341400000000
#04512:14
#04514:0000341400000000
#03314:14
#03318:00140000
#03414:14
#0341a:00140000
#03412:0014
#03418:00000014
#03512:00140000
#0351a:0014
#03514:00000014
#07714:14
#07712:0000341400000000
#03119:24
#03113:24
#08714:24
#00019:0034
#00118:34
#00213:0034
#00314:34
#06314:34
#0611a:34
#05912:34
#05718:34
#03252:14
#0325a:0014
#0565a:54
#05658:00000024
#06658:0024
#0665a:64
#03654:0014
#04052:0014
#0405a:14
#05454:0054
#05452:64
#05552:54
#05554:0014
#06254:00000024
#06252:64
#05852:00000024
#05854:54
#0605a:00000024
#06058:64
#07153:14
#07159:14
#07252:0016
#07258:16
#07658:0014
#08052:16
#08058:0016
#08352:14
#08754:14
#0375a:54
#03758:0000002400000000
#04552:54
#04554:0000002400000000
#04458:0014
#04852:14
#04654:00000054
#04154:00540000
#03358:00640000
#0755a:14
#07958:14
#07754:54
#07752:0000002400000000
#08552:00140000
#0003a0:14
#000390:0034
#001380:3424
#002320:14
#002330:0034
#003340:3424
#0093a0:14
#009390:00340000
#009380:0024
#011320:14
#011330:00340000
#011340:0024
#013380:14
#013390:00340000
#0133a0:0024
#015340:14
#015330:00340000
#015320:0024
#019380:1424
#023340:1424
#033380:00140000
#0333a0:00000024
#0373a0:14000024
#037380:0000345400000000
#041340:00140000
#041320:00000024
#045320:14000024
#045340:0000343400000000
#046340:0000000000001434
#048320:24
#054320:14
#054340:0034
#055320:34
#055340:0024
#0563a0:14
#056380:00003454
#057380:34
#0573a0:0024
#058340:14
#058320:00003454
#059320:34
#059340:0024
#060380:14
#0603a0:00003454
#0613a0:34
#061380:0024
#062320:14
#062340:00003454
#063340:34
#063320:0024
#0663a0:14
#066380:0034
#0673a0:24
#070390:14340034
#071390:24
#070331:1434
#071331:24
#077341:14000024
#077321:0000345400000000
#086341:14343434
#087341:24
#0893a1:00001424
#090321:00001424
#0913a1:00001424
#095341:14000034000034000034000024000000
#096381:1434343434343424
#097321:0014
#102341:0000002400000000
