This file was generated by Ched 2.7.0.0.
#TITLE ""
#ARTIST ""
#DESIGNER ""
#DIFFICULTY 0
#PLAYLEVEL
#SONGID ""
#WAVE ""
#WAVEOFFSET 0
#JACKET ""
#REQUEST "ticks_per_beat 480"
#00002: 4
#BPM01: 117
#00008: 01
#TIL00: ""
#HISPEED 00
#MEASUREHS 00
#00019:14
#00119:14
#0041a:14
#00514:14
#00618:14
#00712:14
#0081a:14
#00810:41
#00914:14
#01018:14
#01112:14
#02012:0016
#02018:26
#02118:1616
#02212:16
#02218:0016
#02210:41
#02312:16
#02318:0016
#02418:0016
#02412:26
#02512:1616
#02618:16
#02612:0016
#02718:16
#02712:0016
#03218:16
#03712:14
#03818:14
#03914:14
#04218:0016
#04212:26
#0421f:21
#04418:1616
#04512:1616
#04612:0016
#04618:26
#04812:1616
#04918:1616
#05018:0014
#05012:24
#05010:41
#05118:0014
#05112:24
#05414:0014
#0541a:24
#05514:0014
#0551a:24
#0331f:11
#0401a:24
#04310:41
#01410:41
#02810:41
#002330:14
#003330:3424
#0123a0:14
#0133a0:24
#014320:14
#015320:24
#016380:1434
#017380:24
#018340:1434
#019340:24
#028380:1636
#029380:3626
#030320:1636
#031320:3626
#033340:14
#034340:24
#0353a0:14
#0363a0:24
#0403a0:14
#0413a0:24
#043320:1626
#047380:1626
#052320:1434
#053320:3424
#0563a0:1434
#0573a0:3434
#0583a0:24
