This file was generated by Ched 2.7.0.0.
#TITLE ""
#ARTIST ""
#DESIGNER ""
#DIFFICULTY 0
#PLAYLEVEL
#SONGID ""
#WAVE ""
#WAVEOFFSET 0
#JACKET ""
#REQUEST "ticks_per_beat 480"
#00002: 4
#BPM01: 117
#00008: 01
#TIL00: ""
#HISPEED 00
#MEASUREHS 00
#00315:000000000000001400000000
#00314:000000000000000000000000000000000014000000000000
#00313:000000000014
#00312:000000000000000000000000000000000000000000000014
#0031a:0024
#00319:0000000000240000
#00318:00000024
#00317:0000000000000024
#00418:000000130000130000000000000000000000130000000013
#00415:0000001300130013
#0041b:13
#00517:0013000000000000
#00519:00130000
#0051b:0000001300000000
#00516:000000000000000000000000130000000000000000000013
#00512:13
#00614:00130000
#00616:0000001300000000
#00612:000000130000000000000000130000000000000023000000
#0061b:000000000000000000000000000000000000000000000023
#00617:00000023
#00718:000000000000000000000000000013000000000000130000
#00715:0000000000130000
#00717:0023000000000000
#00719:00230000
#0071b:0000002300002300
#00712:00002323
#01115:130000130000130000130000230033000000000000130000
#01118:000013000013000013000013000000130000230033000000
#0201b:130000000000130000000000000000000013000000000000
#02012:000000000000130000130000000000000013000000000000
#02015:000000000000000000000000130000000000000000000013
#02018:0000000013000013
#02016:1313000000000000
#02112:00131313
#02117:00000013
#02114:0000000000000013
#02119:0000000000000013
#02115:0013001300000000
#02118:00231300
#0211b:2323002300000000
#02216:1313
#0221b:1313
#02212:00130000
#02210:41
#02312:00000013
#0231b:00000013
#02315:0000000000130000
#02318:24242400
#02314:0024002400000000
#0251b:00131313
#02516:00000013
#02519:0000000000000013
#02514:0000000000000013
#02518:0013001300000000
#02515:00231300
#02512:2323002300000000
#02617:1313
#02612:1313
#0261b:00130000
#02812:14
#0281a:14140000
#02810:41
#02719:00130000
#02712:0013
#02716:00000013
#02714:0000000000130000
#0271b:0000001300000000
#02717:0013000000000000
#05015:230000000013000000000000230000000013000000000013
#05012:000014000013
#05018:000000000000230000000013000000000000230000000000
#0501a:001400000000001400000000
#0501b:0000000000000023
#05010:41
#05118:230000000013000000000000230000000013000000000013
#0511b:000000000013
#05115:000000000000230000000013000000000000230000000000
#05112:000014000000000000000000000014000000000000230000
#0511a:001400
#05212:0013001300000000
#0521b:0013000000130000
#05215:0000130000001313
#05218:000000000000130000000000130000000000000013000013
#05318:000000130000000000130000000000000013000013000000
#05312:1414
#0531a:00140000
#05315:000000000013000000000000000000000000230000230000
#05412:130000000000000000000000000000000013000000000013
#05415:000000230000000000000000230000000000000013000000
#0541b:130000000000000000000013000000000000000000230000
#05418:000000230000000000000000000014000000230000000000
#05616:0014001400000014
#05619:0015
#05612:14000025
#05615:0000000000150000
#0561a:00240000
#05815:13
#0081b:13130013
#00812:00130013
#00815:130000130000000000000013000000000000000000130000
#00818:000000000000000000130000130000130000000000000013
#00810:41
#00915:1313000000000000
#00912:00130013
#00914:0000001300000000
#0091b:00131300
#00916:0013
#0101b:00131300
#01016:00130000
#01018:00000013
#01012:00001313
#01014:0000001300000000
#0191a:0000001200000000
#01918:26
#01912:0000000000000026
#00015:000000000013000000130000000000130000000013000000
#00018:0000000000000013
#0001b:00230023
#00118:000000000013000000130000000000130000000000000000
#0011b:0013
#00112:00231300
#04015:0000001600000000
#04012:26
#04018:000000000000000000000000000000000000003333333333
#0121b:0000000000130000
#01218:00130000
#01212:23000023
#01215:00230000
#0131b:0000001300000000
#01318:13
#01312:00000023
#01315:00230000
#01412:0013
#01415:13
#0141b:00000023
#01418:00230000
#01410:41
#01512:0000001300000000
#01515:13
#0151b:00000023
#01518:00230000
#01818:13
#0181b:00130023
#01815:0013
#01812:00230013
#04112:0013000000002600
#04118:0000131313130026
#04115:130000000000000013000013000013000000000000000000
#0411b:0013000000000000
#02416:000000000000000000000000000000000013000000000000
#0241b:000000000000130000130000000000000013000000000000
#02418:000000000000000000000000000000000000000000000013
#02415:0000000000000013
#02417:1313000000000000
#02412:13130000
#0431b:00131313
#04316:00000013
#04319:0000000000000013
#04314:0000000000000013
#04318:0013001300000000
#04312:2323230013000000
#04315:0000002300000000
#04310:41
#0451b:00000013
#04512:0026002600001300
#04515:0000000000130000
#04518:26262600
#04616:000000000000000000000000000000000013000000000000
#0461b:130000000000000000000000000000000013000000000000
#04619:0013000000000000
#04615:000000000000000000130000000000000000000000000013
#04617:00130000
#04618:0000000000000013
#04612:23230000
#05716:0016001400000000
#05712:16
#05718:00160000
#0551b:000000000013000000000000000000000013000000000013
#05518:230014230013
#05512:000000000000000000000013000000000000000000230000
#05514:001400000000001400000000
#05515:00230023
#04415:00130013
#04417:1313
#0441b:00130000
#04712:00131313
#04717:00000013
#04714:0000000000000013
#04719:0000000000000013
#04715:0013001300000000
#0471b:2323230013000000
#04718:0000002300000000
#04818:00130013
#04816:1313
#04812:00130000
#0491b:00001313
#04918:0000000000130000
#04912:0013001300000000
#04915:00130000
#03312:1313
#03316:00000013
#03314:0000000000000013
#03317:1313
#0331b:00130000
#0331f:11
#0341b:13001313
#03419:0000000000000013
#03412:1313
#03416:00130000
#0351b:0000001313000000
#03512:1300000000000013
#03517:13
#03516:0013
#0361b:13000013
#03615:00131300
#03612:1300001300000000
#03618:0013000000130013
#03718:0016
#03712:0013000000000000
#03716:00240024
#03915:0000000000130013
#03918:0013001316000000
#03912:16000023
#0391b:00230000
#04212:130000000000000000000000000000000013000000000000
#0421b:230000000000230000000000000000000013000000000000
#04218:000000000000000000130000130000000000000000000013
#04215:0000000013000013
#04214:0013000000000000
#04216:00130000
#0421f:21
#03818:0016
#03812:0013000000000000
#03816:00240024
#0161b:00130013
#01618:1313
#01614:00230023
#01712:00130013
#01715:1313
#01719:00230023
#00215:00230023
#00252:13
#0225b:5353
#02256:5353
#02252:00530000
#02257:00130013
#02358:14141400
#02354:0014001400000000
#02352:00000033
#0235b:00000043
#02657:6363
#02652:6363
#0265b:00630000
#02656:00130013
#01958:56000016
#01952:0000000000000016
#0195a:0000002200000000
#00752:00000013
#0075b:00000013
#04055:0000002600000000
#04052:66
#00852:00000013
#0085b:00130000
#0095b:00130000
#00952:00000013
#0105b:00130000
#01052:00000013
#0135b:0000002300000000
#01358:53
#0125b:1300000000230000
#01258:00530000
#01252:13
#01452:0023
#01455:63
#01552:0000002300000000
#01555:63
#01858:53
#0185b:00230000
#01852:00000023
#01855:0063
#04152:00000016
#04158:0000000000000016
#0455b:00000043
#04552:0036003600003300
#04558:46464600
#05352:1414
#0535a:00140000
#05756:0026000000000000
#05752:56
#05655:0000000000250000
#05656:0024000000000000
#05652:54000015
#05659:0065
#0565a:00140000
#04457:5353
#04455:00130013
#0445b:00530000
#04856:6363
#04858:00130013
#04852:00630000
#05252:0000002300000000
#0525b:0000000000230000
#05258:0053
#05255:00630000
#03257:12
#02858:00000014
#0285a:00140000
#02959:00130000
#02957:00000013
#03059:00120000
#03057:00000012
#03357:6363
#0335b:00530000
#02055:0023
#02058:0023
#02152:0013
#02158:0013
#02555:0013
#0255b:0013
#03758:0056
#03752:0023000000000000
#0435b:0013
#04352:0013
#04752:0013
#0475b:0013
#04258:0053
#04255:0063
#05458:0023460000000000
#05455:0023000000000000
#05452:00360000
#03958:0056
#03952:56
#03858:0056
#03852:0023000000000000
#03452:6363
#03456:00530000
#03557:53
#03556:0063
#0165b:00230023
#01658:5353
#01752:00230023
#01755:6363
#01155:0053
#01158:00000063
#000380:130000000023000000000000000000000000000000000000
#001350:130000000023000000000000000000000000000000000000
#001350:0000000000130000
#002320:23
#002381:16
#0033b1:23
#003320:1623
#004350:0013000000000000
#004320:00230000
#004380:000000000000000000000013000000000000000000000000
#0043b0:0000000000230000
#005320:0013000000000000
#005340:00330000
#005360:0000002300000000
#005320:000000000000000000132300
#005371:000000000013
#0053b1:000000000000000000000000000000000000000000000033
#006371:0033000000000000
#006391:00330000
#0063b1:0000002300000000
#006371:000000000000000000132300
#006320:000000000013
#006360:000000000000000000000000000000000000000000000033
#007320:0033000000000000
#007340:00330000
#007360:0000002300000000
#009370:000000000000000000133300
#0093b0:000000000000000000000000000000000000000000000033
#010370:0023000000000000
#009361:000000000000000000000000000000000000000000000013
#010321:0023000000000000
#0103b1:0000000000000013
#0113b1:23
#011351:000000000000133300000000
#011321:000000000000000000000000000000330033230000000000
#011380:000000000000000000133300
#0113b0:000000000000000000000000000000000000000000330033
#0123b0:23
#012380:00130000
#0123b0:0000000000530000
#013380:33000023
#0133b0:0000005300000000
#014350:13
#014320:0053
#015350:33000023
#015320:0000005300000000
#016380:1333
#0163b0:00530053
#017380:23
#017351:1333
#017321:00530053
#018351:23
#018380:1323
#0183b0:00530000
#018351:0013
#018321:00000053
#019351:23
#019380:16000026
#0193a0:0000005200000000
#020350:0013
#020320:0000000000230000
#020381:0013
#0203b1:0000000000230000
#022361:1333
#022321:00330023
#0223b0:13
#022370:00230000
#0223b0:0013
#022370:00000023
#024370:0013
#0243b0:0000000000230000
#024321:0013
#024361:0000000000230000
#026371:1333
#0263b1:00330023
#026320:13
#026360:00230000
#026320:0013
#026360:00000023
#027340:0013002300000000
#027390:00001323
#028360:00140000
#028340:0025
#028391:0015
#028381:00000024
#028340:00000014
#029320:25
#0293a1:14
#029391:00230000
#029360:00130000
#029340:0024
#029381:0014
#029371:00000023
#029340:00000013
#030320:24
#0303a1:13
#030391:00220000
#030370:00120000
#030350:0023
#030381:0013
#030371:00000022
#030350:00000012
#031330:23
#031371:120000323200323200323200
#032371:22
#033371:1333
#0333b1:00330023
#034321:1333
#034361:00330023
#035371:13
#0353b1:00230000
#035361:0013
#035321:00000023
#037321:1353000026000000
#037380:0016
#0373b0:0000000000000053
#0383b0:23
#038321:1353000026000000
#038380:0016
#0383b0:0000000000000053
#0393b0:23
#039321:1600005323000000
#039380:0016
#0393b0:0000000000000053
#0403b0:23
#040321:16000026
#040351:0000005600000000
#0403b0:00000013
#040380:000000000000000000000000000000000000003333333333
#041380:23
#042380:0013
#0423b0:0000000000230000
#042351:0013
#042321:0000000000230000
#044371:1333
#0443b1:00330023
#044320:1323000000000000
#044320:0000000013230000
#046371:0013
#0463b1:0000000000230000
#046320:0013
#046360:0000000000230000
#048360:1333
#048320:00330023
#0483b1:1323000000000000
#0483b1:0000000013230000
#049380:0013002300000000
#0493b0:00330000
#049350:00001323
#049320:0000000000330000
#052350:00132300
#052320:0000005300000000
#052381:00001323
#0523b1:0000000000530000
#054351:0013000000000000
#054321:00260000
#054380:0013260000000000
#056320:14240000
#056360:0054000000000000
#056390:00001525
#056350:0000000000550000
#057320:16260000
#057360:0056000000000000
#057320:0013
#057350:0000000000230000
#057381:0000000000130000
#0573b1:00000023
#057320:00000013
#057350:0000000000000023
#057381:0000000000000013
#0583b1:23
