This file was generated by Ched 2.7.0.0.
#TITLE ""
#ARTIST ""
#DESIGNER ""
#DIFFICULTY 0
#PLAYLEVEL
#SONGID ""
#WAVE ""
#WAVEOFFSET 0
#JACKET ""
#REQUEST "ticks_per_beat 480"
#00002: 4
#BPM01: 117
#00008: 01
#TIL00: ""
#HISPEED 00
#MEASUREHS 00
#00618:00131300
#00612:0013
#00615:0000001300000000
#0061b:000000000000000000000000000000000000230000000013
#02112:0013
#02115:1313131300000000
#0211b:2323232300001300
#02118:0000000013000013
#02215:1313
#02212:00130000
#02210:41
#02313:00000013
#0231a:00000013
#02318:26262600
#02312:0026002600000000
#02718:00130013
#02712:0013
#02715:0013000000130000
#0271b:0000001300000000
#05212:0013130013000000
#0521b:0013130013000000
#05218:0000001300130013
#05215:0000001300130000
#0541a:14
#05414:14
#05415:0013
#05412:000000000000000000000000000033000033130000000000
#0531a:0014140000000000
#05312:1400001414002424
#05318:0000000000002424
#05612:1400240000000014
#0561a:0000001414002400
#05615:0014000000000000
#05617:0000000000140000
#05815:13
#01015:00130013
#01018:0000001300000013
#01012:0013
#0101b:0013
#00015:000000000013000000130000000000130000000000000000
#00018:13230023
#00012:13
#00118:000000000013000000130000000000000000000000000000
#0011b:1313
#00115:13230000
#04015:0016
#04012:26
#02012:0000001300000013
#02015:00130000
#0201b:1300000000330000
#02018:0013000013000000
#05715:0014000000130000
#05712:1413
#05718:0000001300001300
#0571b:0000000013000013
#0281b:13
#02812:00150000
#02810:41
#03315:00000013
#03318:1300000000000013
#0331b:00130000
#0331f:11
#03418:00000013
#03415:1300000000000013
#03412:00130000
#0351b:0000001300000000
#03512:0000000000000013
#03518:13
#03515:0013
#0361b:1313
#03618:00130013
#03612:0000001300000013
#03615:0013000000130000
#03918:0000001300000013
#0391b:0013000000130000
#03915:1313
#03912:00130013
#00212:00130013
#0021b:00230023
#00512:130000000000000000130000000000000000000000000013
#00515:0013000000000000
#00518:00130000
#0051b:0013
#0251b:0013
#02518:1313131300000000
#02512:2323232300001300
#02515:0000000013000013
#02618:1313
#0261b:00130000
#0241b:0000001300000013
#02418:00130000
#02412:1300000000330000
#02415:0013000013000000
#03818:0000000000000013
#0411b:0013000000130000
#04118:0000130013000026
#04115:0000001300000000
#04112:00000026
#0431b:0013
#04318:1313131300000000
#04312:2323232300001300
#04315:0000000013000013
#04310:41
#04418:1313
#0441b:00130000
#0451a:00000013
#04513:00000013
#04512:26262600
#04518:0026002600000000
#04915:00130013
#0491b:0013
#04918:0013000000130000
#04912:0000001300000000
#0421b:0000001300000013
#04215:0013000013000000
#04212:2300000000330000
#04218:00230000
#0421f:21
#04712:0013
#04715:1313131300000000
#0471b:2323232300001300
#04718:0000000013000013
#04815:1313
#04812:00130000
#04612:0000001300000013
#04618:0013000013000000
#0461b:2300000000330000
#04615:00230000
#05018:130033000033000033000033130000000000000000000000
#0501b:000000000000130000000000000033000033130000000000
#05010:41
#05115:130033000033000033000033130000000000000000000000
#05112:000000000000130000000000000033000033130000000000
#01218:0000130000130000
#01215:00000013
#01212:2300001300000000
#0121b:0013
#01318:00000013
#0131b:0000000000000013
#01315:0000000000130000
#01612:13
#01615:0000003300000000
#0171b:13
#01715:13
#01718:0000000000000014
#01713:00330000
#01719:00330000
#01812:1400000000000014
#01819:0014000000000000
#01814:0014
#0181a:0000001400001400
#01813:00140000
#0081b:00130000
#00812:0013000000000013
#00818:13000013
#00815:000000000000000000000013000000000000000000000000
#00810:41
#0091b:1300001300000000
#00918:000000130000000000000000000000000000000000000013
#00915:00130000
#00912:0013
#00412:00130000
#0041b:0013000000000013
#00415:13000013
#00418:000000000000000000000013000000000000000000000000
#0141a:00140000
#01416:0014
#01412:00000014
#01410:41
#01516:1414
#01512:00140000
#0151a:00000014
#05518:130033000033000033000033130000000000000000000000
#0551b:000000000000130000000000000033000033130000000000
#01919:24
#01912:0000000000000026
#00712:00000024
#0071a:00000024
#00715:00232300
#00718:0000002300000000
#0071b:0023
#0031b:0023
#00255:13
#02255:5353
#02252:00530000
#01958:00000016
#01952:0000000000000016
#00752:00000014
#0075a:00000014
#04055:0026
#04052:66
#04152:00000016
#04158:0000000000000016
#05352:1400000014000064
#0535a:00140000
#05358:0000000000000064
#05755:0024000000000000
#05752:54
#05657:0000000000240000
#05655:0024000000000000
#05652:54140000
#0565a:00006414
#05258:0000002300230000
#0525b:00636300
#05255:0000002300230000
#05252:00535300
#03255:13
#02859:00000015
#02852:00150000
#02953:00140000
#02959:00000014
#03055:00130000
#03058:00000013
#03358:63
#0335b:00230000
#03558:53
#03555:0063
#00552:000000000000000000000000000000000000000000000063
#0065b:000000000000000000000000000000000000000000000053
#01252:13
#02058:0053
#02353:00000013
#0235a:00000013
#02658:6363
#0265b:00630000
#02455:0063
#03455:53
#03452:00230000
#04458:6363
#0445b:00630000
#0455a:00000013
#04553:00000013
#04255:0063
#04855:5353
#04852:00530000
#04658:0053
#05058:5353
#0505b:00530053
#05155:6363
#05152:00630063
#0545a:24
#05458:00140000
#05454:24
#05452:00140063
#05455:0063
#01652:53
#0175b:63
#01755:63
#00855:000000000000000000000053000000000000000000000000
#00458:000000000000000000000063000000000000000000000000
#00958:000000000000000000000000000000000000000000000063
#05558:5353
#0555b:00530053
#001350:0000000000130000
#002350:23
#003320:13
#003350:0023
#0033b1:0013
#0033a1:0000000000330000
#003391:00000033
#003381:0000000000000023
#004381:000000000000000000130033000000000000000000000000
#0043b1:0000000000230000
#005321:000000000000000000000000000000000000130033000033
#006351:0023000000000000
#0063b1:000000000000000000000000000000000000130033000033
#007381:0023000000000000
#008351:000000000000000000130033000000000000000000000000
#008321:0000000000230000
#009381:000000000000000000000000000000000000130033000033
#0103b1:0023000000000000
#0113b1:1323000000000000
#011381:0000132300000000
#011351:0000000013230000
#011321:00000013
#012321:23
#012381:0000000000000013
#013381:0026
#016321:13
#016351:0000003323000000
#0173b1:13
#017391:00330000
#017381:0023
#017350:13
#017330:00330000
#017320:0023
#019390:14
#019380:00000026
#020380:0013
#0203b0:000000000000000000000000000000330023000000000000
#022350:1333
#022320:00330023
#024350:0013
#024320:000000000000000000000000000000330023000000000000
#026380:1333
#0263b0:00330023
#028390:00001525
#029330:14240000
#029390:00001424
#030350:13230000
#030380:00001323
#031350:130000333300333300333300
#032350:23
#033380:1323
#0333b0:00330000
#034350:1323
#034320:00330000
#035380:13
#0353b0:00230000
#035350:0013
#035320:00000023
#0373b0:00130033
#037380:0033
#038380:23
#038351:1333
#038321:00330023
#040321:16
#040351:0056
#041321:26
#042351:0013
#042321:000000000000000000000000000000330023000000000000
#044381:1333
#0443b1:00330023
#046381:0013
#0463b1:000000000000000000000000000000330023000000000000
#048351:1333
#048321:00330023
#050381:130033000033000033000033330000000000000000230000
#0503b1:000000000000330000000000000033000033330000000000
#051351:130033000033000033000033330000000000000000230000
#051321:000000000000330000000000000033000033330000000000
#0523b1:00133323
#052381:0000005300530000
#052320:00133323
#052350:0000005300530000
#053380:0000000000000014
#0543a0:54
#054380:0034240000000000
#053321:0000000000000014
#054341:54
#054321:0034240000000000
#054351:0000000013000023
#054321:000000000000000000000000000033000033330000000000
#055381:130033000033000033000033330000000000000000230000
#0553b1:000000000000330000000000000033000033330000000000
#056321:14240000
#056351:0054000000000000
#0563a1:00001424
#056371:0000000000540000
#057321:14240000
#057351:0054000000000000
