This file was generated by Ched 2.7.0.0.
#TITLE ""
#ARTIST ""
#DESIGNER ""
#DIFFICULTY 0
#PLAYLEVEL
#SONGID ""
#WAVE ""
#WAVEOFFSET 0
#JACKET ""
#REQUEST "ticks_per_beat 480"
#00002: 4
#BPM01: 117
#00008: 01
#TIL00: ""
#HISPEED 00
#MEASUREHS 00
#00312:1c00001300130000000000132c00132a0013280013260013
#0031b:0013000000000000
#00316:000000000014000014140000000000000000000000000000
#00417:00130000
#00416:000000130000000000000013000000000000000000000000
#00412:000000130000000000000000001300000000130000000000
#0041b:13000000000013000000001300000000
#00419:0000000000000013
#00415:000000000000000000000000000000000000000000000013
#00418:0000000013130000
#00519:0013000000000000
#0051a:00130000
#0051b:1300001300000000
#00512:130000000000130000171300
#00516:0013
#00616:000000130000130000000000130000000000000023000000
#00612:000000000000130000272300
#0061b:000000000000000000130000000000000000000000000023
#0111b:1313001300000000
#01116:000014000014000014000014000000000000000000000000
#01112:0000000000001300000000002c00132a0013280013260013
#02112:13131313
#02115:260000160000260000160000000000000000000013160000
#02118:00001316
#0211b:0023002300000000
#02015:160013000000160013000000000000000000000000000013
#02018:0016001600000013
#02012:000000000013000000000000130000000013000000000000
#02017:00000000000000000013000000000000
#0201b:000000000000000000000000130000000013000000000000
#02016:000000000000000000000000000000000000000000000000000000000000000000000000000000000000000000000000000000000000000000000000000000000000000000000000000000000000000000000000000000000000000000000000000000000000000000000000000000000000000000000000000000000000000000000000000000000000000000000000000000000000000000000000000000000000000000000000000000000000000000000000000000000000000000000000000000000000000000000000000000000000000000000000000000000000000000000000000000000000000000000000000000000000000000000000000000000000000000000000000000000000000000000000000000000000000000000000000000000000000000000000000000000000000000000000000000000000000000000000000000000000000000000000000000000000000000000000000000000000000000000000000000000000000000000000000000000000000000000000000000000000000000000000000000000000000000000000000000000000000000000000000000000000000000000000000000000000000000000000000000000000000000000000000000000000000000000000000000000000000000000000000000000000000000000000000000000000000000000000000000000000000000000000000000000000000000000000000000000000000000000000000000000000000000000000000000000000000000000000000000000000000000000000000000000000000000000000000000000000000000000000000000000000000000000000000000000000000000000000000000000000000000000000000000000000000000000000000000000000000000000000000000000000000000000000000000000000000000000000000000000000000000000000000000000000000000000000000000000000000000000000000000000000000000000000000000000000000000000000000000000000000000000000000000000000000000000000000000000000000000000000000000000000000000000000000000000000000000000000000000000000000000000000000000000000000000000000000000000000000000000000000000000000000000000000000000000000000000000000000000000000000000000000000000000000000000000000000000000000000000000000000000000000000000000000000000000000000000000000000000000000000000000000000000000000000000000000000000000000000000000000000000000000000000000000000000000000000000000000000000000000000000000000000000000000000000000000000000000000000000000000000000000000000000000000000000000000000000000000000000000000000000000000000000000000000000000000000000000000000000000013000000000000000000000000000000000000000000000000000000000000000000000000000000000000000000000000000000000000000000000000000000000000000000000000000000000000000000000000000000000000000000000000000000000000000000000000000000000000000000000000000000000000000000000000000000000000000000000000000000000000000000000000000000000000000000000000000000000000000000000000000000000000000000000000000000000000000000000000000000000000000000000000000000000000000000000000000000000000000000000000000000000000000000000000000000000000000000000000000000000000000000000000000000000000000000000000000000000000000000000000000000000000000000000000000000000000000000000000000000000000000000000000000000000000000000000000000000000000000000000000000000000000000000000000000000000000000000000000000000000000000000000000000000000000000000000000000000000000000000000000000000000000000000000000000000000000000000000000000000000000000000000000000000000000000000000000000000000000000000000000000000000000000000000000000000000000000000000000000000000000000000000000000000000000000000000000000000000000000000000000000000000000000000000000000000000000000000000000000000000000000000000000000000000000000000000000000000000000000000000000000000000000000000000000000000000000000000000000000000000000000000000000000000000000000000000000000000000000000000000000000000000000000000000000000000000000000000000000000000000000000000000000000000000000000000000000000000000000000000000000000000000000000000000000000000000000000000000000000000000000000000000000000000000000000000000000000000000000000000000000000000000000000000000000000000000000000000000000000000000000000000000000000000000000000000000000000000000000000000000000
#02216:1300130000130000
#0221b:1300000000130013
#02217:0013000013000000
#02212:0013000013001300
#02219:0000001300000000
#02210:41
#02312:000000240018000000240018000000000000140000000000
#0231a:24242414
#02316:000018000000000018000000000014140000000000000000
#05012:000013000016000013000016000013000016000000000000
#05018:000016000000000016000000000016000000000000000016
#05015:260000000000260000000000260000000000260016260000
#05010:41
#05212:0013130000130000
#0521b:0013001313000000
#05215:0000160000001613
#05218:130000000000000000000000000000000000000013000013
#05217:0000001300000000
#05216:0000000000130000
#05312:1600001c00001300001c00001600001c0014000000000000
#05316:000000000000000000241400
#05318:00160000
#05315:000000000013000000000000000000000000000000000000
#0531b:1313
#0531a:0000000000000024
#05612:1300001300002300001c00001400000014000000001c0000
#05619:001300130013000000000000000000000000000000000000
#0561b:130000001300000000000000130000130000230000000000
#05617:001300000000000000000000
#05614:000000000000000000000000001400140014000000000000
#05616:000000000000001400000000
#00718:0000000000130000
#00715:000000000000001300000000
#0071b:000000000000000000000000001300000000230000000000
#00712:002323002300231c
#00717:0000002300000000
#00812:000000150000001200150000
#00817:0015000000000000
#00818:0000001500000000
#00813:0000000000000015
#0081a:000000000000000000000000000000000000000000000012
#00819:00150015
#00814:000000000000000000000012000000150000000000000000
#00816:0015
#0081c:001200000000000000000000
#00815:15
#00810:41
#00917:0015000000000000
#00915:15
#00912:00000015
#00919:0000152500001500
#0091b:000000000000000000000000000000000000000000000013
#00916:000000000000000000000000000000140000000000000013
#0091c:001200000000000000000000
#0101b:0000001300001300
#01012:001300000000150000000000000000000000150000130000
#01017:001300000000000000000000000000000000000000000000
#01019:00150000
#01016:0000000013130000
#00016:0012000000120012
#00018:000000000012000000120000000000000000000012000000
#00012:12240024
#0001c:0000001200000000
#0001a:0000000000120000
#00116:000000000012000000120000000000000000000000000000
#0011c:1212
#00112:0000001212000000
#00118:0012000000120000
#0011a:00240000
#04017:001400000000
#04018:000000000000000000000012000000000000000014000000
#04016:000000000000000000120000000000000000001400001400
#0401a:140000001400000000140000
#04014:0000000000000014
#04012:240000000000000000000014000016000016000000000014
#04112:0000131800001900001a00001b00001c0000280018000000
#04113:000000000013000000000000000000000000000000000000
#04114:001300
#04115:000000000000000000000013000000000000000000000000
#04116:000000000000000000000000000013000000000000280018
#04118:16
#04518:00000014
#04514:00000014
#04512:00001c25001c00001c25001c00001c1c0000000000000000
#04519:25252500
#05412:1c0000260000000000000000000016000000000000000016
#05415:000000000000000000130000000000000000000000000000260000000000000000000000260000001600260000000000
#05418:000000000000260000130000000000000000000000001600000000001600000000001600000000000000000000000000
#03518:000000000000000000130000130013000000000000000000
#03512:1300000000000013
#0351b:1300000000000013
#03515:000000000000000000130000130013000000000000000000
#03912:1300000013002313
#03915:0016000000160000
#0391b:1300231313000000
#04212:240000000000240000000000140000000014000000130013
#04216:000000000000000000000000000000000000000000000000000000000000000000000000000000000000000000000000000000000000000000000000000000000000000000000000000000000000000000000000000000000000000000000000000000000000000000000000000000000000000000000000000000000000000000000000000000000000000000000000000000000000000000000000000000001200000000000000000000000000000000000000000000000000000000000000000000000000000000000000000000000000000000000000000000000000000000000000000000000000000000000000180000000000000000000000000000000000000000000000000000000000000000000000000000000000000000000000000000000000000000000000000000000000000000000000000000000000000000000000000000000000000000000000000000000000000000000000000000000000000000000000000000000000000000000000000000000000000000000000000000000000000000000000000000001800000000000000000000000000000000000000000000000000000000000000000000000000000000000000000000000000000000000000000000000000000000000000000000000000000000000000000000000000000000000000000000000000000000000000000000000000000000000000000000000000000000000000000000000000000000000000000000000000000000000000000000000000000000000000000000000000000000000000000000000000000000000000000000000000000000000000000000000000000000000000000000000000000000000000000000000000000000000000000000001200000000000000000000000000000000000000000000000000000000000000000000000000000000000000000000000000000000000000000000000000000000000000000000000000000000000000180000000000000000000000000000000000000000000000000000000000000000000000000000000000000000000000000000000000000000000000000000000000000000000000000000000000000000000000000000000000000000000000000000000000000000000000000000000000000000000000000000000000000000000000000000000000000000000000000000000000000000000000000000000000000000000000000000000000000000000000000000000000000000000000000000000000000000000000000000000000000000000000000000000000000000000000000000000000000000000000000000000000000000000000000000000000000000000000000000000000000000000000000000000000000000000000000000000000000000000000000000000000000000000000000000000000000000000000000000000000000000000000000000000000000000000000000000000000000000000014140000000000000000000000000000000000000000000000000000000000000000000000000000000000000000000000000000000000000000000000000000000000000000000000000000000000000000000000000000000000000000000000000000000000000000000000000000000000000000000000000000000000000000000000000000000000000000000000000000000000000000000000000000000000000000000000000000000000000000000000000000000000000000000000000000000000000000000000000000000000000000000000000000000000000000000000000000000000000000000000000000000000000000000000000000000000000000000000000000000000000000000000000000000000000000000000000000000000000000000000000000000000000000000000000000000000000000000000000000000000000000000000000000000000000000000000000000000000000000000000000000000000000000000000000000000000000000000000000000000000000000000000000000000000000000000000000000000000000000000000000000000000000000000000000000000000000000000000000000000000000000000000000000000000000000000000000000000000000000000000000000000000000000000000000000000000000000000000000000000000000000000000000000000000000000000000000000000000000000000000000000000000000000000000000000000000000000000000000000000000000000000000000000000000000000000000000000000000000000000000140000000000000000000000000000000000000000000000000000000000000000000000000000000000000000000000000000000000000000000000000000000000000000000000000000000000000000000000000000000000000000000000000000000000000000000000000000000000000000000000000000000000000000000000000000000000000000000000000000000000000000000000000000000000000000000000000000000000000000000000000000000000000000000000000000000000000000000000000000000000000000000000000000000000000000000000000000000000000000000000
#0421a:000000000000000000000000140000000014000000000000
#0421f:21
#00212:0000001300002300000000001c0013000000000000000000
#00217:000000000013000000000000000000130000000000000000
#00216:000000000000000000000000000000000013000000000000
#00218:000000000000000000000000000000000000000013000013
#00215:000000000000000013000013000000000000000000000000
#0021b:00000023
#0191c:0000001200000000
#01915:000000000000000000000012000000160000260000260000
#0191b:000000000000001300001300
#01912:120000000000000012000000000000000013000000000013
#01919:000000000000000000000012000000000000000000000000
#01917:22
#0161b:1300231300000000
#01617:000000000000000000130000130000000000000000000013
#01615:00000013
#01616:13
#01612:0013000013000000
#01618:00000023
#01712:1300231300000000
#01716:0013001313000000
#01718:00000013
#01717:13
#0171b:0013000013000000
#01715:00000023
#01817:13
#01818:0013000000001300
#0181a:0000001300000000
#0181b:0013
#01815:0000000000002316
#01819:00230000
#0251b:13131313
#02515:2616261613000016
#02518:000000000013
#02512:0023002300001600
#02418:000013000000000013000000000000000000000000000013
#02415:1600160016000013
#02412:0016001613000000
#0241b:000000000013000000000000000000000000000000000000
#02416:000000000000000000000000000000000013000000000000
#02617:1300130000130000
#02612:1300000000130013
#02616:0013000013000000
#0261b:0013000013001300
#02614:0000001300000000
#03116:000000000000120000000000000000000000000000000012
#03118:0012
#0311a:00000012
#03112:000000000000000000000012000000000000000000000000
#03114:000000000000000000000000000000000012000000000000
#03816:0013001313000013
#0381b:13131300
#03812:00230023
#04315:260000260000160000260000160000000000000016130000
#04318:00000016
#0431b:1313001300000000
#04312:00231313
#04310:41
#0441b:0013001313000000
#04417:1300001300131313
#04412:1300130000130013
#04416:0013000000000000
#04612:000000180018000000180000180000000000000000000000
#04618:001200001200000000000000
#0461a:24241400
#04615:000000000000000000000000000000000014000000000000
#0461b:000000000000000000000000000000000000000000130013
#04616:0000000000000014
#04712:1313001300001600
#04718:0000000000000013
#0471b:00231313
#04715:260000260000160000260000160000000000000016000000
#04912:12001212
#0491c:0000120000120000
#04917:0012001200000012
#05712:1313131c00000000
#0571c:0012
#0571a:0000000000120000
#05718:00000012
#05716:0000000000000012
#05717:001500150015000000000000000000000000000000000000
#05719:151500000000
#05715:001500000000000000000000
#05814:12
#0321c:12
#0481b:1300130000130013
#04812:0013001313000000
#04816:1300001300131300
#04817:0013000000000000
#02812:00000016
#02818:00160000
#0281b:13
#02810:41
#02914:00000014
#02918:00150000
#03018:00130000
#03016:00000012
#01212:230000000000000000000013000000000000130000000000
#01217:00000000000000000000000000000000000000000000000013000000000000001300000000000000000000000000000000000000000000001333330000000000
#01216:0000130000130000
#0121b:0000230000002313
#0121a:24
#01312:1300000000130000
#01315:00000013
#01318:0000000000000013
#0131b:00230023
#01412:140000000012
#01416:000012120014
#01414:000000000000001200220000
#0141b:13
#0141a:001400
#01418:000000220000001400000000
#01410:41
#01514:000014000000000000000000000000130000000000000000
#01517:000000141400000000000000
#01512:1200230013000013
#0151a:0000000014141400
#01516:0000000000002313
#03315:0000000000000013
#03312:13
#03314:00130000
#03316:0013
#03318:0000000000000013
#0331f:11
#03412:0000000000000013
#0341b:1300000000000013
#03419:00130000
#03417:0013
#03614:0000000000130013
#03617:13
#03619:0013001300000000
#0361b:00130000
#03616:00000013
#03717:0000001313130000
#03712:00131313
#0371b:00230023
#02712:13001313
#0271b:0000130000130000
#02714:0000001300000000
#02719:0013000000000000
#02717:0000000000000013
#05118:000000000016000000000016000000000016000000000000
#05112:000016000000000016000000000016000000000000000016
#05115:260000000000260000000000260000000000260016260000
#0511b:001300001300001300000000
#05512:000016000016000016000016000016000016000000000000
#05518:000016000000000016000000000016000000000000000016
#05515:260000000000260000000000260000000000260016260000
#00253:14
#0225b:5300130000530000
#02257:0053000053001300
#02256:5300530000530000
#02252:0053000053005300
#01955:0000000000001616
#01957:22
#04057:002400000000
#04052:64
#02352:0034003400003400
#0235a:44444444
#04152:00000018
#04156:0000000000000018
#04158:46
#04558:00000044
#04554:00000034
#04559:45454500
#04552:0035003500000000
#05352:1616
#05358:00160000
#05257:0000002300000000
#05252:00530000
#05256:0000000000230000
#0525b:0063
#05452:000000660000360000000000000036000000000000000000
#05458:00005623460000000000000000000000
#05455:00000023000000000000000000000000
#0355b:53
#03555:000000000000632300000000
#03552:53
#03558:000000000000632300000000
#00452:000000000000000000000000002300000000630000000000
#00456:000000630000000000000063000000000000000000000000
#00458:0000000000530000
#0045b:63000000000000000000002300000000
#00457:00630000
#02057:00000000000000000023000000000000
#0205b:0053
#02058:0046004600000000
#02056:000000000000000000000000000000000000000000000000000000000000000000000000000000000000000000000000000000000000000000000000000000000000000000000000000000000000000000000000000000000000000000000000000000000000000000000000000000000000000000000000000000000000000000000000000000000000000000000000000000000000000000000000000000000000000000000000000000000000000000000000000000000000000000000000000000000000000000000000000000000000000000000000000000000000000000000000000000000000000000000000000000000000000000000000000000000000000000000000000000000000000000000000000000000000000000000000000000000000000000000000000000000000000000000000000000000000000000000000000000000000000000000000000000000000000000000000000000000000000000000000000000000000000000000000000000000000000000000000000000000000000000000000000000000000000000000000000000000000000000000000000000000000000000000000000000000000000000000000000000000000000000000000000000000000000000000000000000000000000000000000000000000000000000000000000000000000000000000000000000000000000000000000000000000000000000000000000000000000000000000000000000000000000000000000000000000000000000000000000000000000000000000000000000000000000000000000000000000000000000000000000000000000000000000000000000000000000000000000000000000000000000000000000000000000000000000000000000000000000000000000000000000000000000000000000000000000000000000000000000000000000000000000000000000000000000000000000000000000000000000000000000000000000000000000000000000000000000000000000000000000000000000000000000000000000000000000000000000000000000000000000000000000000000000000000000000000000000000000000000000000000000000000000000000000000000000000000000000000000000000000000000000000000000000000000000000000000000000000000000000000000000000000000000000000000000000000000000000000000000000000000000000000000000000000000000000000000000000000000000000000000000000000000000000000000000000000000000000000000000000000000000000000000000000000000000000000000000000000000000000000000000000000000000000000000000000000000000000000000000000000000000000000000000000000000000000000000000000000000000000000000000000000000000000000000000000000000000000000000000000023000000000000000000000000000000000000000000000000000000000000000000000000000000000000000000000000000000000000000000000000000000000000000000000000000000000000000000000000000000000000000000000000000000000000000000000000000000000000000000000000000000000000000000000000000000000000000000000000000000000000000000000000000000000000000000000000000000000000000000000000000000000000000000000000000000000000000000000000000000000000000000000000000000000000000000000000000000000000000000000000000000000000000000000000000000000000000000000000000000000000000000000000000000000000000000000000000000000000000000000000000000000000000000000000000000000000000000000000000000000000000000000000000000000000000000000000000000000000000000000000000000000000000000000000000000000000000000000000000000000000000000000000000000000000000000000000000000000000000000000000000000000000000000000000000000000000000000000000000000000000000000000000000000000000000000000000000000000000000000000000000000000000000000000000000000000000000000000000000000000000000000000000000000000000000000000000000000000000000000000000000000000000000000000000000000000000000000000000000000000000000000000000000000000000000000000000000000000000000000000000000000000000000000000000000000000000000000000000000000000000000000000000000000000000000000000000000000000000000000000000000000000000000000000000000000000000000000000000000000000000000000000000000000000000000000000000000000000000000000000000000000000000000000000000000000000000000000000000000000000000000000000000000000000000000000000000000000000000000000000000000000000000000000000000000000000000000000000000000000000000000000000000000000000000000000000000000000000000000000000000
#02052:0063
#02158:0033
#02152:0033
#0075b:00000043
#00752:00000033
#0255b:0043
#02555:0043
#02657:6300630000630000
#02652:6300130000630000
#02656:0063000063001300
#0265b:0063000063006300
#02452:0036003663000000
#01656:53
#01652:0023000000000000
#04256:000000000000000000000000000000000000000000000000000000000000000000000000000000000000000000000000000000000000000000000000000000000000000000000000000000000000000000000000000000000000000000000000000000000000000000000000000000000000000000000000000000000000000000000000000000000000000000000000000000000000000000000000000000000000000000000000000000000000000000000000000000000000000000000000000000000000000000000000000000000000000000000000000000000000000000000000000000000000000000000000480000000000000000000000000000000000000000000000000000000000000000000000000000000000000000000000000000000000000000000000000000000000000000000000000000000000000000000000000000000000000000000000000000000000000000000000000000000000000000000000000000000000000000000000000000000000000000000000000000000000000000000000000000000000000000000000000000000000000000000000000000000000000000000000000000000000000000000000000000000000000000000000000000000000000000000000000000000000000000000000000000000000000000000000000000000000000000000000000000000000000000000000000000000000000000000000000000000000000000000000000000000000000000000000000000000000000000000000000000000000000000000000000000000000000000000000000000000000000000000000000000000000000000000000000000000000000000000000000000000000000000000000000000000000000000000000000000000000000000000000000000000000000000000000000000000000000000000000000000000000000000000000000000000000000000000000000000000000000000000000480000000000000000000000000000000000000000000000000000000000000000000000000000000000000000000000000000000000000000000000000000000000000000000000000000000000000000000000000000000000000000000000000000000000000000000000000000000000000000000000000000000000000000000000000000000000000000000000000000000000000000000000000000000000000000000000000000000000000000000000000000000000000000000000000000000000000000000000000000000000000000000000000000000000000000000000000000000000000000000000000000000000000000000000000000000000000000000000000000000000000000000000000000000000000000000000000000000000000000000000000000000000000000000000000000000000000000000000000000000000000000000000000000000000000000000000000000000000000000000024240000000000000000000000000000000000000000000000000000000000000000000000000000000000000000000000000000000000000000000000000000000000000000000000000000000000000000000000000000000000000000000000000000000000000000000000000000000000000000000000000000000000000000000000000000000000000000000000000000000000000000000000000000000000000000000000000000000000000000000000000000000000000000000000000000000000000000000000000000000000000000000000000000000000000000000000000000000000000000000000000000000000000000000000000000000000000000000000000000000000000000000000000000000000000000000000000000000000000000000000000000000000000000000000000000000000000000000000000000000000000000000000000000000000000000000000000000000000000000000000000000000000000000000000000000000000000000000000000000000000000000000000000000000000000000000000000000000000000000000000000000000000000000000000000000000000000000000000000000000000000000000000000000000000000000000000000000000000000000000000000000000000000000000000000000000000000000000000000000000000000000000000000000000000000000000000000000000000000000000000000000000000000000000000000000000000000000000000000000000000000000000000000000000000000000000000000000000000000000000000000000000000000000000000000000000000000000000000000000000000000000000000000000000000000000000000000000000000000000000000000000000000000000000000000000000000000000000000000000000000000000000000000000000000000000000000000000000000000000000000000000000000000000000000000000000000000000000000000000000000000000000000000000000000000000000000000000000000000000000000000000000000000000000000000000000000000000000000000000000000000000000000000000000000000000000000000000000000000000000000
#04252:0064
#0425a:0054
#04457:5300132300636300
#0445b:0053000063001300
#04452:0000530000000023
#00859:00450000
#00852:00000035
#00959:00450000
#00952:00000035
#00956:000000000000000000000000000000000000000000000053
#0095b:000000000000000000000000000000000000000000000053
#0105b:00000023
#01052:002300000000000000000000000000000000350000230000
#01057:002300000000000000000000000000000000000000000000
#01059:00450000
#01757:63
#0175b:0023000000000000
#04652:0038003800000000
#0465a:0054
#05659:005300530053000000000000000000000000000000000000
#0565b:230023000000000000430000
#05657:002300330000000000000000
#05652:000000330000240024000000
#05654:000000000000000000000000006400640064000000000000
#05656:000000000000002400440000
#0325c:12
#05757:005500550055000000000000000000000000000000000000
#05759:252500000000
#05755:002500000000000000000000
#0495c:0000220000520000
#04952:22005252
#04957:0000000000000022
#0485b:0000630000000023
#04852:0063000053001300
#04856:6300132300535300
#0125a:44
#01256:00530000
#01257:0000000053000053
#01352:23
#01452:34
#01456:000000000054
#01458:000000000000005400000000
#0145a:005400
#01554:005400000000000000000000
#01557:005400
#0385b:63636300
#03856:0023002300000000
#02858:00460000
#02852:33000036
#02958:00450000
#02954:00000034
#03058:00430000
#03056:00000032
#03457:0053
#03356:0063
#03752:00535353
#03757:0000002300230000
#02752:23005353
#0275b:0000230000530000
#02757:0000000000000023
#04352:0033
#04355:0036
#04755:0046
#0475b:0043
#05058:004600004600004600000000
#05152:003600003600003600000000
#05558:004600004600004600000000
#000380:12
#0003c0:0022000000000000
#001360:12
#001320:0022000000000000
#001330:000000000000000000000000000000145454545454545454
#001320:000000000000000000000000000000000000000000000000000000000000005600560056005600560056005600560056
#002330:24
#002371:13
#0023b1:0023000000000000
#002381:000000000000000000130023000000000000000000000000
#002351:000000000000000000000000000000000000000000130023
#0043b1:13230000
#004361:0033000000000000
#004370:00130000
#004320:0000002300000000
#004360:000000000000000000000013000000000000000000000000
#004320:000000000000000000000000005300000000000000000000
#004350:0000000000230000
#004381:0000000000130000
#0043b1:00000000000000000000005300000000
#004371:00000023
#004320:00000013
#004360:0000000000000023
#005320:0013000000000000
#005350:00330000
#005380:0000002300000000
#005360:000000000013
#0053b0:000000000000000000000000000000000000000000000023
#005371:000000000000000000000000000000000000000000000013
#006321:0033330000000000
#006371:0000002300000000
#006321:000000000013
#006371:000000000000000000000000000000000000000000000023
#0063b0:000000000000000000000000000000000000000000000013
#007360:0033330000000000
#0073b0:0000002300000000
#009320:0000153500000000
#009390:0025
#009391:0000001500000000
#009321:0025
#009371:000000000013
#0093b1:000000000000000000000000000000000000000000000033
#010371:005300000000000000000000000000000000000000000000
#0103b1:0023000000000000
#009360:000000000000000000000000000000000000000000000013
#010320:005300000000000000000000000000000000000000000000
#010360:0023000000000000
#010370:0000001300000000
#010320:0023
#0103b0:00000013
#010360:0000000000000023
#010321:0000000000000013
#011371:23
#012361:00130000
#012321:0000002300000000
#012371:0013
#0123b1:0000000000230000
#012371:00000000000000000000000000000000000000000000000000000000000000000000000000000000000000000000000000000000000000001333330000000000
#013321:532c
#0143a1:001400
#014381:0024
#014381:000000000000001400000000
#014361:00000024
#014361:000000000014
#015341:24
#015341:001400000000000000000000
#015371:000000000024000000000000000000000000000000000000
#015371:001400
#0153a1:000000000000000000000024000000000000000000000000
#016361:13
#016321:0053000000000000
#016371:00230000
#017371:13
#0173b1:0053000000000000
#017361:00230000
#017321:0000000000000014
#018331:34
#018341:0034000000000000
#018351:00340000
#018361:0000003400000000
#018371:0024
#019371:12
#019351:002600
#0203b1:0000000013230000
#020371:00000000000000000053000000000000
#020320:0000000013230000
#020360:000000000000000000000000000000000000000000000000000000000000000000000000000000000000000000000000000000000000000000000000000000000000000000000000000000000000000000000000000000000000000000000000000000000000000000000000000000000000000000000000000000000000000000000000000000000000000000000000000000000000000000000000000000000000000000000000000000000000000000000000000000000000000000000000000000000000000000000000000000000000000000000000000000000000000000000000000000000000000000000000000000000000000000000000000000000000000000000000000000000000000000000000000000000000000000000000000000000000000000000000000000000000000000000000000000000000000000000000000000000000000000000000000000000000000000000000000000000000000000000000000000000000000000000000000000000000000000000000000000000000000000000000000000000000000000000000000000000000000000000000000000000000000000000000000000000000000000000000000000000000000000000000000000000000000000000000000000000000000000000000000000000000000000000000000000000000000000000000000000000000000000000000000000000000000000000000000000000000000000000000000000000000000000000000000000000000000000000000000000000000000000000000000000000000000000000000000000000000000000000000000000000000000000000000000000000000000000000000000000000000000000000000000000000000000000000000000000000000000000000000000000000000000000000000000000000000000000000000000000000000000000000000000000000000000000000000000000000000000000000000000000000000000000000000000000000000000000000000000000000000000000000000000000000000000000000000000000000000000000000000000000000000000000000000000000000000000000000000000000000000000000000000000000000000000000000000000000000000000000000000000000000000000000000000000000000000000000000000000000000000000000000000000000000000000000000000000000000000000000000000000000000000000000000000000000000000000000000000000000000000000000000000000000000000000000000000000000000000000000000000000000000000000000000000000000000000000000000000000000000000000000000000000000000000000000000000000000000000000000000000000000000000000000000000000000000000000000000000000000000000000000000000000000000000000000000000000000000000000000000053000000000000000000000000000000000000000000000000000000000000000000000000000000000000000000000000000000000000000000000000000000000000000000000000000000000000000000000000000000000000000000000000000000000000000000000000000000000000000000000000000000000000000000000000000000000000000000000000000000000000000000000000000000000000000000000000000000000000000000000000000000000000000000000000000000000000000000000000000000000000000000000000000000000000000000000000000000000000000000000000000000000000000000000000000000000000000000000000000000000000000000000000000000000000000000000000000000000000000000000000000000000000000000000000000000000000000000000000000000000000000000000000000000000000000000000000000000000000000000000000000000000000000000000000000000000000000000000000000000000000000000000000000000000000000000000000000000000000000000000000000000000000000000000000000000000000000000000000000000000000000000000000000000000000000000000000000000000000000000000000000000000000000000000000000000000000000000000000000000000000000000000000000000000000000000000000000000000000000000000000000000000000000000000000000000000000000000000000000000000000000000000000000000000000000000000000000000000000000000000000000000000000000000000000000000000000000000000000000000000000000000000000000000000000000000000000000000000000000000000000000000000000000000000000000000000000000000000000000000000000000000000000000000000000000000000000000000000000000000000000000000000000000000000000000000000000000000000000000000000000000000000000000000000000000000000000000000000000000000000000000000000000000000000000000000000000000000000000000000000000000000000000000000000000000000000000000000000000000000000000
#022360:130000000053330000000000000053330000000053000000
#022320:000053330000000053000000330000000053330000000000
#023360:23
#0223b1:130000000053230000000000000000000000000000000000
#022371:000053530000000000000000000000000000000000000000
#022371:000000000000000000000000130000000053230000000000
#0223b1:000000000000000000000000000053530000000000000000
#024320:0013
#024360:0000000000230000
#0243b1:000000000000000000000000000000130023000000000000
#026371:130000000053330000000000000053330000000053000000
#0263b1:000053330000000053000000330000000053330000000000
#027371:23
#026320:130000000053230000000000000000000000000000000000
#026360:000053530000000000000000000000000000000000000000
#026360:000000000000000000000000130000000053230000000000
#026320:000000000000000000000000000053530000000000000000
#027320:13
#027370:00230000
#0273b1:00130000
#027361:0023
#027320:0013
#027370:0000000000230000
#0273b1:0000000000130000
#027361:00000023
#027320:00000013
#027370:0000000000000053
#028320:23
#028320:00163c00
#028390:00000055
#029330:3b543900
#029390:00000053
#030350:37523600
#030390:00000052
#031360:25
#031321:12220000
#031361:000000000000000012000022000000000000000000000000
#031381:000000000000000000000000000012000022000000000000
#0313a1:000000000000000000000000000000000000000012000022
#0333c1:12
#033381:00000026
#033360:0013
#033320:00000023
#034320:12000026
#034371:0013
#0343b1:00000023
#0353b1:13
#035381:00230000
#035320:13
#035350:00230000
#035350:0013
#035380:000000000000005300000000
#035320:00000023
#035381:0013
#035351:000000000000005300000000
#0353b1:00000023
#036321:1323
#036361:00530000
#036370:0013
#0363b0:00000053
#037370:23
#037321:13333333
#037371:0000005300530000
#038361:23
#0383b0:13333300
#038360:0053005300002300
#039350:00130000
#039380:0000002300000000
#039380:00000013
#039350:0000000000000023
#040320:142400
#040370:005400000000
#040380:000000000000000000000000000000000000000000000000000000000000165656562600000000000000000000000000
#0403a0:000000000000000000000000000000000000000000000000000000000000000000000000000000000000000000000000000000000000000000000000005200520052005200000000000000000000000000000000000000000000000000000000
#042320:0000000014240000
#042360:00000000000000000054000000000000
#0423a1:0000000014240000
#042361:000000000000000000000000000000000000000000000000000000000000000000000000000000000000000000000000000000000000000000000000000000000000000000000000000000000000000000000000000000000000000000000000000000000000000000000000000000000000000000000000000000000000000000000000000000000000000000000000000000000000000000000000000000000000000000000000000000000000000000000000000000000000000000000000000000000000000000000000000000000000000000000000000000000000000000000000000000000000000000000000000000000000000000000000000000000000000000000000000000000000000000000000000000000000000000000000000000000000000000000000000000000000000000000000000000000000000000000000000000000000000000000000000000000000000000000000000000000000000000000000000000000000000000000000000000000000000000000000000000000000000000000000000000000000000000000000000000000000000000000000000000000000000000000000000000000000000000000000000000000000000000000000000000000000000000000000000000000000000000000000000000000000000000000000000000000000000000000000000000000000000000000000000000000000000000000000000000000000000000000000000000000000000000000000000000000000000000000000000000000000000000000000000000000000000000000000000000000000000000000000000000000000000000000000000000000000000000000000000000000000000000000000000000000000000000000000000000000000000000000000000000000000000000000000000000000000000000000000000000000000000000000000000000000000000000000000000000000000000000000000000000000000000000000000000000000000000000000000000000000000000000000000000000000000000000000000000000000000000000000000000000000000000000000000000000000000000000000000000000000000000000000000000000000000000000000000000000000000000000000000000000000000000000000000000000000000000000000000000000000000000000000000000000000000000000000000000000000000000000000000000000000000000000000000000000000000000000000000000000000000000000000000000000000000000000000000000000000000000000000000000000000000000000000000000000000000000000000000000000000000000000000000000000000000000000000000000000000000000000000000000000000000000000000000000000000000000000000000000000000000000000000000000000000000000000000000000000000000000000000054000000000000000000000000000000000000000000000000000000000000000000000000000000000000000000000000000000000000000000000000000000000000000000000000000000000000000000000000000000000000000000000000000000000000000000000000000000000000000000000000000000000000000000000000000000000000000000000000000000000000000000000000000000000000000000000000000000000000000000000000000000000000000000000000000000000000000000000000000000000000000000000000000000000000000000000000000000000000000000000000000000000000000000000000000000000000000000000000000000000000000000000000000000000000000000000000000000000000000000000000000000000000000000000000000000000000000000000000000000000000000000000000000000000000000000000000000000000000000000000000000000000000000000000000000000000000000000000000000000000000000000000000000000000000000000000000000000000000000000000000000000000000000000000000000000000000000000000000000000000000000000000000000000000000000000000000000000000000000000000000000000000000000000000000000000000000000000000000000000000000000000000000000000000000000000000000000000000000000000000000000000000000000000000000000000000000000000000000000000000000000000000000000000000000000000000000000000000000000000000000000000000000000000000000000000000000000000000000000000000000000000000000000000000000000000000000000000000000000000000000000000000000000000000000000000000000000000000000000000000000000000000000000000000000000000000000000000000000000000000000000000000000000000000000000000000000000000000000000000000000000000000000000000000000000000000000000000000000000000000000000000000000000000000000000000000000000000000000000000000000000000000000000000000000000000000000000000000000000000000000
#044371:130000000053230000000000000000000000000000000000
#0443b1:000053330000000000000000000000000000000000000000
#044320:00132300
#044370:0000005300000000
#0443b1:000000000000000000000000130000000053230000000000
#044371:000000000000000000000000000053330000000000000000
#044370:00000013
#044320:0000000000000053
#045360:23
#0463a0:0014
#046350:0000000000240000
#046321:000000000000000000000000000000130023000000000000
#048361:130000000053230000000000000000000000000000000000
#048321:000053330000000000000000000000000000000000000000
#0483b0:00132300
#048360:0000005300000000
#048321:000000000000000000000000130000000053230000000000
#048361:000000000000000000000000000053330000000000000000
#048360:00000013
#0483b0:0000000000000053
#049370:23
#049321:12
#049371:00220000
#0493c0:00120000
#049370:0022
#049321:0012
#049361:0000000000220000
#0493c0:0000000000120000
#049380:00000022
#049321:00000012
#049371:0000000000000052
#050321:22
#052321:00132300
#052371:0000005300000000
#0523b0:00001323
#052360:0000000000530000
#054320:0016260000000000
#054350:00000053000000000000000000000000
#054381:00001653260000000000000000000000
#0563b1:135300000000
#056391:005300530053000000000000000000000000000000000000
#056371:005300230000000000000000
#056321:000000145400
#056341:000000000000000000000000005400540054000000000000
#056361:000000000000005400240000
#057391:155500000000
#057371:005500550055000000000000000000000000000000000000
#057351:005500250000000000000000
#057321:000000000000000000000000000000000000000000000000000000000000000000000000000000000000000000000000000000000000000000000000000000000000000000000000000000000000000000000000000000000000000000000000000000000000000000000000000000000000000000000000000000000000000000000000000000000000000000000000000000000000000000000000000000000000000000000000000000000000000000000000000000000000000000000000000000000000000000000000000000000000000000000000000000000000000000000000000000000000000000000000000000000000000000000000000000000000000000000000000000000000000000000000000000000000000000000000000000000000000000000000000000000000000000000000000000000000000000000000000000000000000000000000000000000000000000000000000000000000000000000000000000000000000000000000000000000000000000000000000000000000000000000000000000000000000000000000000000000000000000000000000000000000000000000000000000000000000000000000000000000000000000000000000000000000000000000000000000000000000000000000000000000000000000000000000000000000000000000000000000000000000000000000000000000000000000000000000000000000000000000000000000000000000000000000000000000000000000000000000000000000000000000000000000000000000000000000000000000000000000000000000000000000000000000000000000000000000000000000000000000000000000000000000000000000000000000000000000000000000000000000000000000000000000000000000000000000000000000000000000000000000000000000000000000000000000000000000000000000000000000000000000000000000000000000000000000000000000000000000000000000000000000000000000000000000000000000000000000000000000000000000000000000000000000000000000000000000000000000000000000000000000000000000000000000000000000000000000000000000000000000000000000000000000000000000000000000000000000000000000000000000000000000000000000000000000000000000000000000000000000000000000000000000000000000000000000000000000000000000000000000000000000000000000000000000000000000000000000000000000000000180000000000000000000000000000000000000000000000000000000000000000000000000000000000000000000000000000000000000000000000000000000000000000000000000000000000000000000000000000000000000000000000000000000000000000000000000000000000000000000000000000000000000000000000000000000000000000000000000000000000000000000000000000003800000000000000000000000000000000000000000000000000000000000000000000000000000000000000000000000000000000000000000000000000000000000000000000000000000000000000385600000000000000000000000000000000000000000000000000000000000000000000000000000000000000000000000000000000000000000000000000000000000000000000000000000000000000000000000000000000000000000000000000000000000000000000000000000000000000000000000000000000000000000000000000000000000000000000000000000000000000000000000000563400000000000000000000000000000000000000000000000000000000000000000000000000000000000000000000000000000000000000000000000000000000000000000000000000000000000000345300000000000000000000000000000000000000000000000000000000000000000000000000000000000000000000000000000000000000000000000000000000000000000000000000000000000000000000000000000000000000000000000000000000000000000000000000000000000000000000000000000000000000000000000000000000000000000000000000000000000000000000000000533200000000000000000000000000000000000000000000000000000000000000000000000000000000000000000000000000000000000000000000000000000000000000000000000000000000000000220000000000000000000000000000000000000000000000000000000000000000000000000000000000000000000000000000000000000000000000000000000000000000000000000000000000000000000000000000000000000000000000000000000000000000000000000000000000000000000000000000000000000000000000000000000000000000000000000000000000000000000000000000000000000000000000000000000000000000000000000000000000000000000000000000000000000000000000000000000000000000000000000000000000000000000000000000000000000000000000
